<?xml version="1.0" standalone="no"?>
<!DOCTYPE svg PUBLIC "-//W3C//DTD SVG 1.1//EN" "http://www.w3.org/Graphics/SVG/1.1/DTD/svg11.dtd" >
<svg>
<metadata>
Created by FontForge 20090622 at Tue May  3 17:37:16 2016
 By deploy user
Copyright (c) 2011 by Font Diner, Inc. All rights reserved.
</metadata>
<defs>
<font id="Satisfy" horiz-adv-x="581" >
  <font-face 
    font-family="Satisfy"
    font-weight="400"
    font-stretch="normal"
    units-per-em="1024"
    panose-1="2 0 0 0 0 0 0 0 0 0"
    ascent="819"
    descent="-205"
    x-height="387.5"
    cap-height="751"
    bbox="-215.143 -501 956.1 956.059"
    underline-thickness="51"
    underline-position="-52"
    unicode-range="U+0020-U+FB02"
  />
<missing-glyph horiz-adv-x="287" 
 />
    <glyph glyph-name=".notdef" horiz-adv-x="287" 
 />
    <glyph glyph-name="Eth" unicode="&#xd0;" horiz-adv-x="648" 
d="M300 258q-37 2 -93 0l-6 -24l-6 -23l-23 -85l-64 -224q14 -24 52 -24q42 0 97.5 32t107.5 96t91.5 160.5t49.5 225.5q5 70 -7 123t-36.5 89t-60 54t-78.5 18q-101 0 -209 -84l-5 83q26 29 59.5 44.5t62.5 23.5q34 9 69 10q64 0 123.5 -24.5t103 -74.5t66.5 -125.5
t16 -176.5q-4 -58 -23.5 -120.5t-51 -122.5t-74.5 -114t-94 -94.5t-109 -64t-120 -23.5q-19 1 -41 7q-19 5 -43 17t-50 34q-9 6 -9.5 13t3.5 14q4 8 12 16q9 7 22.5 43.5t28 86.5t28.5 106.5l25 104.5q-26 -2 -64.5 -6t-75.5 -13q-1 7 0 15t3 15q2 8 5 15q4 9 11.5 20
t13.5 14q8 3 43 6.5t79 5.5q1 12 3 21l11 61q5 29 11 67.5t11 85.5l80 36q17 8 24 -3.5t0 -47.5q-2 -12 -6.5 -35.5l-10.5 -53l-13.5 -63.5l-15.5 -68q29 -1 52 -2t44 -3q15 -2 17.5 -9.5t-3.5 -24.5t-13.5 -24t-19.5 -6z" />
    <glyph glyph-name="eth" unicode="&#xf0;" horiz-adv-x="403" 
d="M115 38q18 0 33 8.5t27 22t21.5 31t16.5 36.5q-7 -1 -13.5 -1.5t-14.5 -0.5q-38 0 -65.5 22.5t-42.5 57.5q-6 -21 -10 -41t-4 -38t2 -35.5t8 -31t16 -22t26 -8.5zM238 238q2 19 0 39t-7.5 36.5t-14 27t-20.5 10.5q-19 0 -36.5 -10.5t-32.5 -29.5q-3 -9 -3 -19
q0 -16 2 -33.5t10 -31.5t25.5 -23.5t48.5 -9.5q5 0 10 0.5t10 1.5l5.5 23.5t2.5 18.5zM406 522q-17 -2 -40.5 -7l-49.5 -11q11 -56 10.5 -127.5t-17.5 -160.5q58 26 101 54t66 51q10 9 17.5 10t10.5 -4t1 -14t-11 -20q-5 -6 -26 -24.5t-49.5 -40t-61.5 -41.5t-61 -29
q-10 -38 -27 -70.5t-40.5 -56.5t-53 -37.5t-64.5 -13.5q-41 0 -64.5 17.5t-35 43.5t-14 57t-2.5 58q0 19 4.5 42t12.5 47t20.5 48t29.5 44q6 17 18.5 30t29 21.5t35.5 13t37 4.5q3 0 5.5 -1t5.5 -2q14 -1 31.5 -8.5t36.5 -26.5q1 16 1 36q0 17 -1 39.5t-3 48.5
q-8 -3 -23.5 -7t-34 -10t-39 -13.5t-38.5 -16.5q-2 6 -2.5 13t-0.5 13q0 7 1 14q2 10 6.5 21t9.5 14q6 5 39 15t73 19q-5 19 -11 36.5t-14 34.5q-3 6 -5 13.5t0 15.5q3 19 6.5 22t8.5 0q17 -10 35 -37.5t32 -74.5q35 7 60.5 11.5t50.5 6.5q13 2 16 -4t1 -24q-2 -15 -7 -22.5
t-16 -9.5z" />
    <glyph glyph-name="Lslash" unicode="&#x141;" horiz-adv-x="504" 
d="M-1 -112q13 5 30 10t39 28q-15 5 -23 5q-36 0 -52.5 -10.5t-16.5 -20.5q0 -7 6 -10.5t17 -1.5zM377 584q-5 -15 -13 -44t-17 -67q54 35 86.5 80t32.5 90q0 27 -16 27q-14 0 -36 -21.5t-37 -64.5zM375 200q-20 -2 -46.5 -7.5l-56.5 -11.5q-4 -11 -7 -22t-7 -21
q-14 -39 -35.5 -87t-52.5 -92l38.5 -25t39.5 -23.5t40.5 -17.5t43.5 -7q24 1 47 7q20 5 42 16.5t41 32.5q7 -12 4.5 -36t-15.5 -48t-37 -42t-60 -18q-38 0 -71 10.5t-62 25.5t-54.5 32.5l-47.5 32.5q-30 -29 -66 -47t-80 -18q-35 0 -56 19.5t-19 52.5q1 12 7 28.5t22.5 31.5
t45.5 25.5t75 10.5q17 0 32.5 -3.5t30.5 -8.5q11 20 22 46l24 59q7 17 12.5 33t10.5 33q-26 -6 -59 -16.5t-63 -23.5q-2 7 -2.5 14.5t0.5 14.5l2 16q2 9 7.5 21.5t11.5 16.5q7 5 43.5 15t81.5 20q7 26 13 53t11 53q-14 -3 -29.5 -4t-31.5 -1q-51 0 -82.5 11t-42.5 28
q-5 7 -9 21t3 31q14 -11 30.5 -16.5t30.5 -7.5q17 -3 33 -3q30 0 58.5 5t56.5 14q12 60 23.5 108t26.5 78q16 33 33.5 59.5t39 45t47.5 28.5t60 10q25 0 39.5 -10t22 -25t9 -32.5t1.5 -32.5q0 -33 -16 -72t-45 -77t-69.5 -72t-90.5 -56l-15.5 -61t-15.5 -59q26 4 47.5 6.5
t42.5 4.5q14 1 18 -5.5t0 -26.5q-3 -17 -8.5 -24.5t-17.5 -9.5z" />
    <glyph glyph-name="lslash" unicode="&#x142;" horiz-adv-x="224" 
d="M254 364q-20 -3 -46.5 -8l-55.5 -11l-40.5 -154l-51.5 -201q-5 -5 -12 -7t-13 -2q-7 0 -15 1q-7 2 -14 6q-6 4 -12 10.5t-9 17.5l41.5 174l32.5 135l-58.5 -17t-62.5 -23q-2 7 -2.5 14.5t0.5 14.5l2 16q2 9 7 21t11 17q7 5 42 15t79 18q14 57 21.5 92t12.5 55q5 23 7 33
q3 19 5 37q2 16 2 33t-3 31q8 5 17.5 8t18.5 5q11 3 22 5t20 2q8 0 15 -1.5t9 -6.5q6 -5 5.5 -20t-2.5 -31l-9 -41q-5 -14 -11 -40q-6 -22 -14.5 -57t-22.5 -87q27 5 48.5 7.5t43.5 4.5q15 1 18.5 -5.5t0.5 -26.5q-4 -17 -9.5 -24.5t-17.5 -9.5z" />
    <glyph glyph-name="Scaron" unicode="&#x160;" horiz-adv-x="486" 
d="M367 459q-1 3 6 15.5t15.5 31t17 42t12 48.5t-0.5 50t-21 48q-10 12 -29.5 13.5t-44 -6t-51 -23t-48.5 -36t-37.5 -45.5t-17.5 -51q-2 -21 1.5 -39t9.5 -33t13 -28t13 -23q8 -14 25 -31l37 -38.5t40 -48.5t35 -61t21 -76t-1 -93q-11 -74 -35 -123.5t-52.5 -79.5
t-57.5 -43.5t-48 -17.5q-15 -3 -35.5 -5.5t-43 1t-45.5 14t-41 32.5q-21 25 -33 54q-11 25 -16.5 57.5t5.5 67.5q8 9 17 16t18 12q10 6 21 11q13 4 26 7q11 2 23.5 2.5t23.5 -3.5q-15 -17 -21 -32q-4 -8 -6 -14q-4 -19 -2.5 -45.5t11 -51t27.5 -42t48 -18.5q73 -2 124 114
q17 36 17.5 73t-9 71t-25 63.5t-31.5 50.5t-38.5 45.5t-44.5 53.5t-39.5 63t-23.5 74q-8 56 10.5 102.5t50 81.5t69 57t66.5 28q161 32 211 -54q21 -33 23 -70t-4.5 -68.5t-16 -53t-12.5 -23.5q-6 -6 -19 -13t-42 -13q-8 -2 -16 -2q-7 0 -15 1t-14 4zM338 886
q-10 15 -18 25.5t-20 17.5q7 5 17.5 5.5t20.5 0.5q11 -1 24 -2q19 -2 31.5 -15t30.5 -50q0 -1 0.5 -1.5t0.5 -1.5l50.5 41.5t15.5 13.5q17 13 33 11t30 -1h12q5 0 11 0.5t11 1.5q-5 -5 -17 -14.5l-25 -19.5q-15 -11 -32 -25l-16 -13l-20.5 -16l-19 -14.5t-12.5 -8.5
q-3 -3 -14 -4.5t-23 -1.5t-22.5 2t-12.5 5t-7 12l-11 19.5l-11 19.5t-7 13z" />
    <glyph glyph-name="scaron" unicode="&#x161;" horiz-adv-x="360" 
d="M141 34q6 -4 15.5 -4t19 4t18 11t12.5 18t0 31.5t-12.5 44t-18.5 47.5t-17 44q-6 15 -10 28l-7.5 21.5t-5.5 14.5q-5 -8 -17.5 -26l-27 -37.5l-27.5 -36l-18 -22.5q-8 -9 -15.5 -10.5t-12.5 3t-5.5 13t7.5 20.5q6 8 18 25.5l24 36l22 33t11 17.5q2 8 -5.5 21t-2.5 30
q4 14 18 32.5t33 33.5t39 22.5t36 -0.5q13 -8 21 -17.5t6 -19.5q-2 -5 -6 -13t-12 -19.5t-23 -29.5q3 -23 8.5 -42t10.5 -33q6 -17 13 -31l19 -37t18 -37.5t13 -34.5t3 -27q-3 -17 -17.5 -41t-36 -46.5t-49 -38.5t-57.5 -16q-21 0 -40.5 13t-33 30.5t-20 34.5t-1.5 26
q6 12 11 19t15 16q4 3 10 7q5 3 14 6l21 7q10 -31 18 -48.5t13 -27.5q6 -11 11 -15zM124 600q-10 15 -18 25.5t-20 17.5q7 5 17.5 5.5t20.5 0.5q11 -1 24 -2q19 -2 31.5 -15t30.5 -50q0 -1 0.5 -1.5t0.5 -1.5l50.5 41.5t15.5 13.5q17 13 33 11t30 -1h12q5 0 11 0.5t11 1.5
q-5 -5 -17 -14.5l-25 -19.5q-15 -11 -32 -25l-16 -13l-20.5 -16l-19 -14.5t-12.5 -8.5q-3 -3 -14 -4.5t-23 -1.5t-22.5 2t-12.5 5t-7 12l-11 19.5l-11 19.5t-7 13z" />
    <glyph glyph-name="Yacute" unicode="&#xdd;" horiz-adv-x="545" 
d="M157 77q-67 0 -97.5 43t-25.5 116q4 45 17 115q11 60 33.5 151t61.5 220q12 8 24.5 12.5t22.5 6.5q11 3 23 4q9 1 19 1q8 0 16 -1.5t13 -5.5q-51 -131 -79.5 -224t-42.5 -153q-17 -70 -21 -115q-3 -55 16.5 -78t58.5 -23q31 0 63 23.5t62 67t55.5 105t43.5 138.5
q8 43 18 86l18 79.5l19 79.5q9 8 19.5 12.5t19.5 7.5q11 4 22 5q10 1 20 0q8 -1 16.5 -3t13.5 -7q-17 -53 -29.5 -96l-21.5 -74l-19 -64q-8 -30 -19 -78l-27 -106l-39 -158l-15 -60t-23.5 -75t-36 -77.5t-53 -69.5t-74.5 -50t-100 -19q-33 1 -59 10q-23 8 -42.5 23.5
t-22.5 44.5q5 11 11 20t12 17q7 9 14 17q7 7 15 13q7 5 15 9t16 4q4 -9 12 -21t20 -22.5t27 -17.5t33 -7q24 0 51 15.5t53.5 53t51.5 101.5t47 161q-13 -23 -33 -50t-47.5 -51t-64 -40t-81.5 -16zM462 911q9 7 20 -1t16 -24q7 -21 1 -31.5t-18 -18.5q-6 -5 -22.5 -14
t-36 -18.5t-38.5 -17t-29 -8.5q-11 -1 -17 2.5t-9.5 8.5t-4.5 11.5t-1 11.5q78 54 109 77z" />
    <glyph glyph-name="yacute" unicode="&#xfd;" horiz-adv-x="416" 
d="M263 368q13 10 25.5 15.5t22.5 7.5q11 3 22 2q27 -2 33.5 -17t1.5 -48q-3 -17 -12 -43l-21 -63.5t-25.5 -85.5t-25.5 -108q-12 -49 -26 -113l-28.5 -135t-35.5 -181q-5 -25 -21.5 -29t-34.5 4q-7 4 -13 9l-11 11.5t-10 17.5l40.5 153l31.5 120l28 106l9.5 41.5t9.5 40.5
q-13 -21 -28 -40t-33 -33t-38.5 -21.5t-42.5 -4.5q-54 7 -76.5 40t-19.5 86q1 21 6 46t11 48t11.5 41.5t8.5 26.5q12 38 17.5 65t-8.5 45q14 9 26.5 12.5t22.5 5.5q11 1 22 0q27 -4 31.5 -20t-3.5 -48q-4 -17 -13 -43.5l-19 -54.5l-18 -51.5t-9 -33.5q-9 -45 -1 -69.5
t35 -24.5q13 0 29 11.5t32.5 30.5t32.5 43.5t29.5 49.5t24 49t15.5 43q7 37 9 58t-14 38zM320 595q9 7 20 -1t16 -24q7 -21 1 -31.5t-18 -18.5q-6 -5 -22.5 -14t-36 -18.5t-38.5 -17t-29 -8.5q-11 -1 -17 2.5t-9.5 8.5t-4.5 11.5t-1 11.5q78 54 109 77z" />
    <glyph glyph-name="Thorn" unicode="&#xde;" horiz-adv-x="583" 
d="M551 343q-6 -58 -37 -120.5t-88 -115t-140.5 -87.5t-193.5 -36q-5 -28 -9 -55q-4 -23 -7 -48.5l-5 -42.5q-16 -8 -30 -12.5t-25 -6.5q-13 -3 -24 -3q-24 0 -29.5 5.5t-1.5 21.5q3 14 18 76l15.5 65.5l22.5 96l31 132l41 173.5l6 24l-13 -13l-12 -11.5t-12 -12.5
q-7 6 -12 13t-8 12q-4 6 -6 13q-3 7 -5 15t-1 16t6.5 16.5t17.5 16.5l27.5 18.5t43.5 24.5l39 165q3 12 7 20.5t11 14.5t18 10.5t28 8.5q28 7 39 5.5t9 -6.5l-16 -60.5t-33 -118.5q30 8 64.5 12.5t73.5 4.5q63 0 101.5 -25t59.5 -60.5t26.5 -75.5t2.5 -70zM99 30
q45 2 102.5 20.5t110.5 56.5t92.5 97.5t48.5 144.5q5 50 -6 83.5t-31 53.5t-46 28.5t-52 8.5q-28 0 -57 -9.5t-55 -23.5l-24.5 -92.5l-24 -94l-21.5 -90t-17 -80.5q-5 -29 -10 -54.5t-10 -48.5z" />
    <glyph glyph-name="thorn" unicode="&#xfe;" horiz-adv-x="462" 
d="M505 229q8 10 15 13.5t11 0.5t4 -11.5t-6 -21.5q-4 -9 -16.5 -29t-32 -45t-43.5 -52t-51.5 -49t-56 -36.5t-56.5 -14.5q-13 0 -20.5 1t-13 3.5l-10.5 5t-12 5.5q-18 -14 -37 -21.5t-37 -7.5q-17 0 -29.5 5.5t-20.5 15t-13 21t-8 22.5q-1 -4 -1.5 -7t-1.5 -8
q-12 -48 -25 -111l-26.5 -131.5t-32.5 -176.5q-6 -27 -21.5 -31t-35.5 4q-7 3 -14 9q-6 5 -12 12.5t-10 18.5l47.5 186l33.5 132l26 104q9 34 21.5 86l26.5 110l28 117l25.5 108.5l19 83t8.5 41.5q3 19 5 37q2 16 2 33t-3 31q8 5 18 8t19 5q11 3 21 5q11 2 20 2q8 0 15 -1.5
t9 -6.5q6 -5 5.5 -20t-2.5 -31l-9 -41q-20 -77 -45 -151t-46 -155q15 17 33 35t38 32.5t41 24t41 9.5q23 0 37.5 -11.5t22.5 -30.5t10 -42.5t1 -46.5q-1 -25 -8.5 -53t-20.5 -57t-30 -57t-36 -52q3 -2 5 -3t8 -1q23 0 47 12t47.5 30.5t45 40.5t39 42.5t29.5 37t18 23.5z
M195 76q15 18 31.5 40.5t30 46.5t23 49t10.5 48q2 30 -7 47t-30 17q-31 0 -67.5 -36.5t-74.5 -94.5q-5 -17 -10.5 -39.5l-12.5 -53.5q8 6 18 9t20 3q11 0 28 -11.5t41 -24.5z" />
    <glyph glyph-name="Zcaron" unicode="&#x17d;" horiz-adv-x="466" 
d="M72 167l49 60.5l59.5 73l64 80l61.5 80.5t52 74t37 62q6 13 10 25q4 11 6.5 22.5t0.5 22.5q-29 0 -69 -1.5t-84.5 -6.5t-89 -15t-81.5 -28q-5 4 -6.5 13t0.5 20q1 11 5 26q4 13 9 24l10.5 18t13.5 13q38 5 71 8t59 5q30 2 55 2l68 -2q29 -2 61.5 -3.5t60.5 -6.5
q5 -14 7.5 -29t3.5 -27q1 -14 1 -28q-2 -35 -31 -91t-74 -116l-38 -47.5l-51.5 -63l-60 -73l-63 -77l-61 -76t-52.5 -69.5q-26 -35 -43.5 -68.5t-27.5 -58.5q26 10 80 22.5t128 12.5q39 0 73 -3q29 -2 57.5 -7.5t42.5 -14.5q-2 -10 -10 -24q-7 -12 -22 -29.5t-41 -40.5
q-39 8 -73 12.5t-60 6.5q-30 3 -55 3t-54 -4q-25 -3 -56.5 -8.5t-66.5 -16.5q-10 6 -15.5 21t-8.5 30q-4 18 -6 39q26 59 53.5 106.5t50.5 81.5q26 40 50 71zM297 875q-10 15 -18 25.5t-20 17.5q7 5 17.5 5.5t20.5 0.5q11 -1 24 -2q19 -2 31.5 -15t30.5 -50q0 -1 0.5 -1.5
t0.5 -1.5l50.5 41.5t15.5 13.5q17 13 33 11t30 -1h12q5 0 11 0.5t11 1.5q-5 -5 -17 -14.5l-25 -19.5q-15 -11 -32 -25l-16 -13l-20.5 -16l-19 -14.5t-12.5 -8.5q-3 -3 -14 -4.5t-23 -1.5t-22.5 2t-12.5 5t-7 12l-11 19.5l-11 19.5t-7 13z" />
    <glyph glyph-name="zcaron" unicode="&#x17e;" horiz-adv-x="358" 
d="M420 161q-7 -10 -22.5 -29t-37 -41t-49 -45.5t-58.5 -42.5q-4 -23 -15 -65.5t-29 -92.5t-42 -101.5t-53.5 -94t-64.5 -69t-74 -26.5t-61 13t-32.5 33.5t-12.5 45t-1 47.5q1 30 18 69.5t47.5 80t73.5 77t96 61.5q26 11 48 21.5t41 20.5q8 33 1.5 44t-18.5 11
q-18 0 -42.5 -16t-60.5 -50q-10 -1 -17.5 2.5t-12.5 8.5q-6 5 -10 12q-11 17 -9.5 34t15.5 27q14 11 41.5 35.5t53.5 62.5l19.5 27.5t23 36t22 40.5t16.5 40q-20 3 -58 -1l-43 -9q-20 -5 -45.5 -13t-53.5 -22q-4 2 -6 8t-3 14q-1 9 -1 20q0 14 4.5 23.5t11.5 15.5t15 9.5
t14 5.5q7 2 27.5 5.5t46.5 6.5t54 4.5t51 0.5q47 -3 59.5 -12.5t6.5 -29.5q-7 -20 -27 -67.5t-61 -109.5l-31 -43t-27 -35q17 8 34 12.5t34 4.5q23 0 30.5 -22t8.5 -48q40 25 71.5 53t67.5 72q9 11 16.5 13t11.5 -2.5t4 -13t-6 -17.5zM170 -57q2 8 4.5 14.5t4.5 13.5
q-52 -29 -95 -61.5t-74.5 -68.5t-49.5 -75t-20 -79q-1 -24 7.5 -41t30.5 -17q24 0 51.5 34.5t54 84t49.5 103t37 92.5zM134 559q-10 15 -18 25.5t-20 17.5q7 5 17.5 5.5t20.5 0.5q11 -1 24 -2q19 -2 31.5 -15t30.5 -50q0 -1 0.5 -1.5t0.5 -1.5l50.5 41.5t15.5 13.5
q17 13 33 11t30 -1h12q5 0 11 0.5t11 1.5q-5 -5 -17 -14.5l-25 -19.5q-15 -11 -32 -25l-16 -13l-20.5 -16l-19 -14.5t-12.5 -8.5q-3 -3 -14 -4.5t-23 -1.5t-22.5 2t-12.5 5t-7 12l-11 19.5l-11 19.5t-7 13z" />
    <glyph glyph-name="onehalf" unicode="&#xbd;" horiz-adv-x="618" 
d="M134 446q-6 -23 -12.5 -52.5t-6.5 -58.5q0 -9 1 -18.5t3 -17.5l2 -6l-5 -2q-1 -1 -12.5 -4.5t-32.5 -3.5h-1q-17 0 -24 9q-7 10 -7 23t5 28l25 84.5t41 175.5l5.5 30.5l4.5 23.5q-8 6 -15.5 12.5t-12.5 14.5l-3 4l2 4l4 4q1 1 2 2.5t3 3.5q3 5 7.5 9t9.5 9l20.5 18
t20.5 14q6 3 11 3q3 0 5 -0.5t4 -1.5q1 -1 7 -5q4 -4 7.5 -7t5.5 -7q4 -6 4 -11v-3zM558 454q8 -5 14 -11t9 -13q8 -14 10 -28.5t2 -25.5v-14q-2 -40 -25 -80.5t-54 -77.5q-30 -37 -63 -67.5l-56 -50.5q-10 -8 -16.5 -16.5t-11.5 -16.5q16 5 37 10.5t47 5.5q25 0 41 -3.5
t25 -6.5q10 -3 14 -6t5 -5l1 -1v-1q0 -1 0.5 -5t0.5 -11v-9t-2 -10q-4 -13 -9 -21.5t-5 -9.5l-11 -17l-2 20q-1 0 -1 1l-2.5 2.5t-5.5 3.5q-8 4 -25.5 7.5t-49.5 3.5q-37 0 -52 -5t-17 -7l-1 -1h-1q0 -1 -1 -1v-2l-1 1q-8 -4 -14 -4q-10 0 -20 7q-9 6 -12 20q-3 12 -5.5 18
t-4.5 8q0 1 -1 1l-3 4l2 4q9 20 20 35t24 29q14 14 29.5 28l35.5 31q19 15 39 36.5t37 47.5q18 27 29.5 58t13.5 67v5q0 23 -9 34q-8 8 -23 8q-6 0 -15 -6q-11 -7 -19 -18q-10 -11 -16.5 -26t-7.5 -32v-2q0 -6 3 -9v-2h1l10 -5l-8 -8q-1 -1 -3 -2t-3.5 -2.5t-3.5 -2.5
q-4 -2 -9.5 -4t-12.5 -2h-10t-10 2q-13 4 -20 15q-5 7 -5 21v3q0 7 3 15.5t8 17.5q11 21 29 40q20 19 49.5 33t68.5 13q23 0 39 -8zM532 749q25 5 33.5 3.5t6.5 -6.5l-26.5 -36l-51 -69.5l-67.5 -92.5l-74.5 -104l-72 -104t-60.5 -93l-58 -92l-49 -80.5l-42 -71.5
q-17 -8 -30 -11.5t-23 -5.5q-11 -2 -21 -2q-20 0 -22.5 5t7.5 18l43 63l37.5 54.5l54.5 79.5l74.5 109.5l98.5 143.5l169 245q13 20 28 29.5t45 17.5z" />
    <glyph glyph-name="onequarter" unicode="&#xbc;" horiz-adv-x="593" 
d="M543 456q6 -4 7 -9q1 -3 1 -8q0 -7 -3 -16q-2 -9 -7 -29l-11.5 -47t-13 -57.5l-12.5 -58.5q2 -1 4 -1t4 -1q5 -2 10 -5t8 -8q6 -8 6 -16q0 -9 -4 -16l-4 -10l-4 -10q-3 -5 -4 -10l-6 -14l-7 13v1l-2 2t-3.5 4t-4.5 4q-2 1 -2.5 1.5t-2.5 1.5q-8 -47 -12.5 -86t-4.5 -65
v-9v-4l-2 -2q-1 0 -4.5 -3t-9.5 -6q-14 -9 -34 -9q-16 0 -25 11q-6 9 -6 23v5q1 12 4 24.5t5 23.5l12 47l15 58q-28 -2 -57 -6t-63 -12l-3 -1l-3 2q-1 1 -8.5 8t-14.5 22q-7 13 -7 25q-2 14 13 25q5 4 13.5 13l22.5 23l27.5 31.5l32.5 37.5q26 29 41 48.5t22 30.5q6 7 6 10
l1 4l3 1l7 2.5l16.5 6t20 6.5t19.5 5q5 1 12 1q8 0 12 -2zM464 304q5 22 9.5 39.5t8.5 31.5l-31.5 -37.5l-32.5 -39.5l-34.5 -39.5l-31.5 -36.5v-1q5 1 17 1q25 2 43 4t32 4q6 20 10.5 39t9.5 35zM129 446q-5 -23 -12 -52.5t-7 -58.5q0 -9 1 -18.5t3 -17.5l2 -6l-5 -2
q-1 -1 -12.5 -4.5t-32.5 -3.5h-1q-17 0 -24 9q-7 10 -7 23t5 28l25 84.5t40 175.5q4 17 6.5 30.5l4.5 23.5q-8 6 -15.5 12.5t-12.5 14.5l-3 4l2 4l4 4q1 1 2 2.5t3 3.5q5 8 17 18l20.5 18t20.5 14q6 3 11 3q3 0 5 -0.5t4 -1.5q1 -1 7 -5l7 -7t6 -7q4 -6 4 -11v-3zM527 749
q25 5 33.5 3.5t6.5 -6.5l-27 -36l-51.5 -69.5l-67.5 -92.5l-74 -104l-71.5 -104t-60.5 -93l-58 -92l-49 -80.5l-42 -71.5q-17 -8 -30 -11.5t-23 -5.5q-11 -2 -21 -2q-20 0 -22.5 5t6.5 18l43 63l37.5 54.5l55 79.5l75 109.5l98.5 143.5l169 245q13 20 27.5 29.5t45.5 17.5z
" />
    <glyph glyph-name="onesuperior" unicode="&#xb9;" horiz-adv-x="154" 
d="M177 748l7 -7t6 -7q5 -5 5 -11q0 -2 -1 -3l-68 -274q-5 -23 -12.5 -52.5t-7.5 -58.5q0 -20 6 -36l1 -6l-5 -2q-2 -1 -13 -4.5t-33 -3.5q-15 0 -24 9q-7 10 -7 23t5 28l25 84.5t40 175.5q4 17 6.5 30.5l4.5 23.5q-8 6 -15.5 12.5t-12.5 14.5l-2 4l2 4q2 2 3 4q1 1 2 2.5
t3 3.5q4 5 8 9l9 9l20.5 18t20.5 14q6 3 12 3q2 0 8 -2q2 -2 3.5 -2.5t3.5 -2.5z" />
    <glyph glyph-name="threequarters" unicode="&#xbe;" horiz-adv-x="686" 
d="M126 276q-32 0 -52.5 9.5t-32.5 23.5q-11 15 -16 30t-5 26v2q0 13 11 20q8 7 20 10q11 3 22 3.5t19 0.5h10l-3 -9q-1 -2 -2 -7.5t-1 -11.5q0 -7 1.5 -15t6.5 -13q5 -6 12 -9.5t20 -3.5q13 -1 27 9q14 11 24 29q11 17 17 37.5t7 38.5v3q0 16 -7 27q-8 9 -22 9
q-15 1 -29.5 -5t-18.5 -8h-1l-7 -4l-18 49l7 2q20 8 42.5 22.5t42.5 33.5q19 20 31.5 45t14.5 56v1q0 14 -9 25q-10 10 -27 10q-9 0 -21 -4.5t-22 -13.5q-11 -9 -17.5 -20.5t-7.5 -26.5v-2q0 -14 8 -18q3 -3 7 -3h3h-3h22l-18 -14q-1 -2 -4 -3q-2 -2 -5 -2.5t-6 -2.5
q-6 -3 -14 -5.5t-16 -3.5q-19 0 -31 12q-15 14 -14 40v3q0 15 8 34t25 36t45 29t66 12q18 0 35 -5t31 -17q29 -24 29 -68v-4q-2 -52 -46 -103q-9 -11 -20.5 -21t-25.5 -20q7 -2 14.5 -5t14.5 -8q12 -9 19.5 -25t7.5 -40v-4q-1 -24 -11 -52t-30 -53q-19 -25 -46 -41.5
t-60 -16.5h-1zM635 456q7 -3 8 -9q1 -3 1 -8q0 -7 -3 -16q-2 -9 -7.5 -29t-12 -47t-13 -57.5l-12.5 -58.5q2 -1 4 -1t4 -1q11 -4 20 -13q4 -7 4 -16t-3 -16l-4 -10l-4 -10l-5 -10l-6 -14l-6 13h-1v1l-2 2q-2 3 -8 8q-1 1 -2 1.5t-2 1.5q-8 -47 -13 -86t-5 -65q0 -6 1 -9v-4
l-3 -2q-2 -1 -4 -3t-10 -6q-14 -9 -33 -9h-1q-15 0 -23 11q-5 5 -6 11t-1 12v5q1 12 4 24.5t5 23.5l11.5 47l14.5 58q-27 -2 -56.5 -6t-63.5 -12l-3 -1l-3 2q0 1 -7.5 8t-14.5 22q-3 7 -5 13t-2 12q0 14 12 25q9 8 36 36l28 31.5l32 37.5q26 29 41.5 48.5t23.5 30.5
q4 7 4 10l1 4l4 1l22 8l21 6.5t20 5.5q3 1 6.5 1h5.5q8 0 11 -2zM556 304l10.5 39.5t7.5 31.5l-31 -37.5l-33 -39.5l-34 -39.5l-31 -36.5l-1 -1q5 1 9 1h9q25 2 43 4t32 4l10 39zM620 749q25 5 34 3.5t5 -6.5q-5 -8 -26 -36l-51.5 -69.5l-67.5 -92.5l-74 -104l-71.5 -104
t-60.5 -93l-59 -92l-49 -80.5l-42 -71.5q-16 -8 -29.5 -11.5t-23.5 -5.5q-11 -2 -21 -2q-20 0 -22 5t8 18l43 63l37.5 54.5l54.5 79.5l74.5 109.5l98.5 143.5l168 245q13 20 28 29.5t46 17.5z" />
    <glyph glyph-name="threesuperior" unicode="&#xb3;" horiz-adv-x="269" 
d="M281 737q29 -24 29 -68v-4q-2 -52 -46 -103q-9 -11 -20.5 -21t-25.5 -20q7 -2 14.5 -5t14.5 -8q12 -9 19.5 -25t7.5 -40v-4q-1 -24 -11 -52t-30 -53q-19 -25 -46 -41.5t-60 -16.5h-1q-32 0 -52.5 9.5t-32.5 23.5q-11 15 -16 30t-5 26v2q0 13 11 20q8 7 20 10q11 3 22 3.5
t19 0.5h10l-3 -9q-1 -2 -2 -7.5t-1 -11.5q0 -7 1.5 -15t6.5 -13q5 -6 12 -9.5t20 -3.5q13 -1 27 9q14 11 24 29q11 17 17 37.5t7 38.5v3q0 16 -7 27q-8 9 -22 9q-15 1 -29.5 -5t-18.5 -8h-1l-7 -4l-18 49l7 2q20 8 42.5 22.5t42.5 33.5q19 20 31.5 45t14.5 56v1q0 14 -9 25
q-10 10 -27 10q-9 0 -21 -4.5t-22 -13.5q-11 -9 -17.5 -20.5t-7.5 -26.5v-2q0 -14 8 -18q3 -3 7 -3h3h-3h22l-18 -14q-1 -2 -4 -3q-2 -2 -5 -2.5t-6 -2.5q-6 -3 -14 -5.5t-16 -3.5q-19 0 -31 12q-15 14 -14 40v3q0 15 8 34t25 36t45 29t66 12q18 0 35 -5t31 -17z" />
    <glyph glyph-name="twosuperior" unicode="&#xb2;" horiz-adv-x="275" 
d="M276 751q15 -10 23 -24t10 -28.5t2 -25.5v-14q-2 -40 -25 -80.5t-54 -77.5t-63 -67.5t-55 -50.5q-11 -8 -17.5 -16.5t-11.5 -16.5q16 5 37 10.5t46 5.5q26 0 42 -3.5t26 -6.5q9 -3 13 -6t5 -5l1 -1v-1q0 -1 0.5 -5t0.5 -11v-9t-2 -10q-3 -13 -8 -21.5t-6 -10.5l-11 -16
l-3 20v1l-2.5 2.5t-5.5 3.5q-8 4 -25.5 7.5t-49.5 3.5q-37 0 -51.5 -5t-16.5 -7l-1 -1h-1q0 -1 -1 -1v-2l-1 1q-8 -4 -16 -4q-10 0 -18 7q-9 6 -12 20q-4 12 -6.5 18t-4.5 8q0 1 -1 1l-3 4l2 4q10 20 20.5 34.5t23.5 28.5q14 14 30 28.5l36 31.5q18 15 38.5 36.5t37.5 47.5
q17 27 29 58.5t14 66.5v5q0 24 -10 34q-10 8 -22 8q-6 0 -15 -6q-5 -3 -10 -8l-10 -10q-9 -11 -15.5 -26t-7.5 -32v-2q0 -6 3 -9v-2h1l10 -5l-8 -8q-1 -1 -3 -2t-4 -2.5t-4 -2.5q-4 -2 -9.5 -4t-12.5 -2h-9t-11 2q-13 3 -20 15q-5 10 -5 21q0 1 0.5 1.5t0.5 1.5q0 11 10 33
q5 10 12 19.5t18 20.5q19 19 48.5 33t69.5 14q12 0 21 -2.5t17 -6.5z" />
    <glyph glyph-name="brokenbar" unicode="&#xa6;" horiz-adv-x="260" 
d="M219 749q23 5 32.5 3.5t8.5 -6.5q-2 -8 -10.5 -37.5l-20.5 -72.5l-26 -96l-28 -107q-2 -3 -7 -7q-5 -3 -13.5 -5.5t-22.5 -2.5q-13 -1 -19.5 2t-8.5 7q-3 4 -2 9l6 21l58 245q5 20 15 29.5t38 17.5zM114 331q14 -1 20.5 -4t8.5 -7q3 -4 2 -10l-7.5 -33t-5.5 -30l-17 -92
q-7 -38 -13.5 -80.5t-9.5 -71.5q-14 -8 -25.5 -11.5t-20.5 -5.5q-11 -2 -19 -2q-20 0 -24 4.5t-2 18.5q1 4 8 34l17.5 74l23 96l24.5 100q2 7 7 11t12 7t21 2z" />
    <glyph glyph-name="minus" unicode="&#x2212;" horiz-adv-x="362" 
d="M310 289q-28 1 -71 0.5t-85 -1.5q-28 -1 -57 -4q-25 -2 -55 -6t-57 -12q-1 8 0 15.5t3 14.5q2 8 4 15q4 10 11.5 21t13.5 14q5 2 20.5 4t37 3.5t48 2.5t52.5 1q53 1 88 -0.5t67 -4.5q14 -2 16.5 -9t-3.5 -25q-6 -17 -13 -23.5t-20 -5.5z" />
    <glyph glyph-name="multiply" unicode="&#xd7;" horiz-adv-x="288" 
d="M226 201q0 -2 -2 -8t-5 -12.5t-6.5 -12t-5.5 -6.5q-5 -2 -7 -1.5t-5 1.5q-23 4 -39.5 28.5t-22.5 47.5q-2 8 -5 17.5l-7 22.5q-15 -18 -33 -36l-34 -36l-38 -40q-8 -1 -13.5 0t-9.5 3t-8 5q-3 2 -6 6q-6 8 -5 15l46.5 52.5l41.5 47.5l40 46l-18 61.5t-12 40.5
q-8 23 -18 39.5t-24 23.5q8 8 19 12.5t22 6.5q12 3 25 3q19 0 30 -32t26 -92q0 -2 0.5 -2.5t0.5 -2.5l34 39l28.5 32.5l20 23t8.5 9.5q16 18 29 21t24 -5q5 -3 11 -7q12 -7 26 -12l-31.5 -30.5t-31.5 -32.5q-18 -18 -34 -37q-14 -13 -30.5 -31.5t-36.5 -38.5
q10 -36 21 -67.5t23 -46.5q5 -7 8 -8.5t4 -6.5z" />
    <glyph glyph-name="space" unicode=" " horiz-adv-x="287" 
 />
    <glyph glyph-name="exclam" unicode="!" horiz-adv-x="255" 
d="M215 751q10 2 21 2q9 0 19.5 -2t19.5 -8l-152 -563q-3 -11 -18 -22t-31.5 -17.5t-29 -7t-10.5 9.5q4 16 18 78l15 66.5l21.5 95.5l29.5 130.5l39 170.5l2 14q1 5 0.5 11t-2.5 9q8 9 18 15.5t19 10.5q11 4 21 7zM61 76q26 4 42 -4.5t14 -31.5q-1 -13 -11 -24.5
t-23.5 -20.5t-28 -14t-25.5 -5q-21 0 -36 9t-13 29q1 13 8.5 23.5t19 18.5t25.5 13t28 7z" />
    <glyph glyph-name="quotedbl" unicode="&#x22;" horiz-adv-x="255" 
d="M152 749q23 5 32.5 3.5t8.5 -6.5q-3 -8 -10.5 -32.5t-18 -62l-23.5 -85.5l-27 -102q-2 -3 -7 -7q-5 -3 -13.5 -5.5t-22.5 -2.5q-14 -1 -20 1.5t-8 6.5q-3 4 -2 9q1 3 2 7q1 3 1.5 7t1.5 7l52 215q5 20 15.5 29.5t38.5 17.5zM292 749q23 5 32.5 3.5t7.5 -6.5
q-2 -8 -9.5 -32.5t-18 -62l-24 -85.5t-26.5 -102q-2 -3 -7 -7q-5 -3 -13.5 -5.5t-22.5 -2.5q-14 -1 -20 1.5t-8 6.5q-3 4 -2 9q1 3 2 7q1 3 1.5 7t1.5 7l53 215q5 20 14.5 29.5t38.5 17.5z" />
    <glyph glyph-name="numbersign" unicode="#" horiz-adv-x="428" 
d="M437 499q18 -1 21 -8t-5 -23t-16 -22t-23 -6q-14 1 -30 1h-36q-9 -25 -17.5 -51.5l-16.5 -52.5q23 -1 42.5 -1.5t38.5 -2.5q17 -2 20.5 -8t-4.5 -23q-8 -15 -16 -22t-23 -6q-16 1 -34.5 1h-41.5q-1 -2 -1 -4t-1 -4q-14 -49 -21 -76t-10 -40q-4 -15 -4 -18q-1 -1 -19 -8.5
t-37 -7.5q-17 0 -20 4t0 15l5 15.5t10.5 31l14.5 42.5l16 49h-47q-10 0 -19 -0.5t-20 -0.5q0 -2 -0.5 -3t-0.5 -3q-14 -49 -21 -76t-10 -40t-3.5 -15.5t0.5 -2.5q-2 -1 -19.5 -8.5t-37.5 -7.5q-17 0 -20 4t1 15q0 2 4 14l10 30l13.5 41t16.5 47q-17 -1 -34 -3l-31 -4.5
l-31 -4.5q-2 6 -0.5 13.5t3.5 13.5l6 14q4 8 12.5 18.5t16.5 12.5q7 2 28.5 4t51.5 4l21 60t14 39l-39 -4l-35.5 -4t-35.5 -5q-3 13 2 27q2 7 6 14q5 8 13.5 18t16.5 13q7 2 32 4.5t61 4.5l29 99q5 16 14.5 24.5t32.5 13.5q20 4 28 3t7 -4q-4 -10 -17 -46.5l-31 -87.5h34
h28.5t25.5 -1l30 98q5 16 14 24.5t33 13.5q20 4 28 3t7 -4q-4 -10 -17.5 -47.5l-30.5 -88.5q18 -1 35 -1.5t33 -2.5zM251 338l23 66.5t13 36.5q-16 0 -31.5 -0.5t-30.5 -0.5h-15t-14 -1q-9 -25 -17 -50l-16 -51q11 0 23 0.5t23 0.5t21.5 -0.5t20.5 -0.5z" />
    <glyph glyph-name="dollar" unicode="$" horiz-adv-x="300" 
d="M254 668q27 -5 43.5 -22.5t25.5 -38.5t11.5 -41t1.5 -30q-1 -11 -4.5 -24.5t-10 -25.5t-16.5 -21.5t-24 -12.5q-11 -3 -21 -4q-8 -1 -17.5 -1t-14.5 4q13 13 21 30t13 33q5 18 7 38q3 33 -13 53.5t-33 20.5q-16 0 -32 -8t-30 -21.5t-23.5 -33t-11.5 -41.5q-2 -31 14 -68
l34 -78q13 -29 26 -54.5t22 -49t12.5 -46t-0.5 -46.5q-2 -12 -9.5 -29.5t-21.5 -34t-36 -29.5t-52 -17l-25 -72q-9 -5 -21 -7q-6 -1 -12 -1t-10 1t-7.5 3t-4.5 6q5 15 8 28.5t6 23.5l6 21q-29 6 -47 20.5t-28 31.5t-13.5 33.5t-2.5 25.5q2 23 12.5 35.5t27.5 23.5l14 7
q14 7 29 11q-10 -16 -13 -36q-3 -11 -3 -22q-5 -44 14.5 -69.5t45.5 -27.5q9 0 21.5 5t24 15.5t19.5 25t10 34.5q2 19 -2.5 36.5t-11 32.5t-14.5 28.5l-14 24.5q-5 12 -17.5 35t-24.5 53t-20.5 64t-5.5 66q3 28 15.5 51.5t32.5 42t45.5 30.5t52.5 17q4 12 10 33.5t11 34.5
q1 4 9 7t19 1q22 -5 20 -16l-8 -27.5z" />
    <glyph glyph-name="percent" unicode="%" horiz-adv-x="588" 
d="M41 535q0 27 10.5 63t31.5 68.5t51.5 54.5t70.5 22q10 0 27 -7t33 -22.5t28 -39.5t12 -58q0 -42 -12 -83t-33.5 -74t-52.5 -53t-69 -20q-35 0 -54 14.5t-29 37t-12 48.5t-2 49zM241 600q1 15 -0.5 31t-6 29t-11 21.5t-15.5 8.5q-21 0 -40.5 -17t-33.5 -42.5t-22.5 -55.5
t-8.5 -55q0 -14 1.5 -28t6 -25t12.5 -17.5t20 -6.5q26 0 44 20.5t29.5 47t17.5 52.5t7 37zM444 341q11 0 28 -7t33.5 -22t28 -39t11.5 -58q0 -42 -12 -83.5t-33.5 -74.5t-52.5 -53t-69 -20q-35 0 -54 15t-29 37t-12 48t-2 48q0 28 10.5 64t31 68.5t51 54.5t70.5 22zM480 199
q1 15 0 31t-5.5 29t-11.5 21.5t-16 8.5q-21 0 -40 -17.5t-33 -43t-22 -55t-8 -54.5q0 -15 1.5 -28.5t6 -24.5t12.5 -17.5t20 -6.5q26 0 44 20.5t29 47t16.5 52.5t6.5 37zM558 749q25 5 33.5 3.5t6.5 -6.5l-27 -36l-51.5 -69.5l-67.5 -92.5l-74 -104l-71.5 -104t-60.5 -93
l-59 -92l-49 -80.5l-42 -71.5q-17 -8 -30 -11.5t-23 -5.5q-11 -2 -20 -2q-20 0 -22.5 5t6.5 18l43 63l37.5 54.5l54.5 79.5l74.5 109.5l98.5 143.5l169 245q14 20 28.5 29.5t45.5 17.5z" />
    <glyph glyph-name="ampersand" unicode="&#x26;" horiz-adv-x="472" 
d="M408 184q9 8 17 9t12.5 -3.5t3 -13t-12.5 -20.5l-50 -49.5t-61 -50.5q8 -15 18 -27q8 -11 19 -21.5t25 -15.5q-2 -4 -9 -8l-15 -9l-20 -11q-27 -13 -45 -14t-30 5t-18.5 18t-10.5 25q-1 1 -1 5q0 2 -1 3q-32 -13 -67 -21t-73 -8q-48 0 -77.5 19t-44 47t-17.5 60.5t2 59.5
q9 56 57.5 120t129.5 143q5 5 11 10t11 10q0 27 1.5 51.5t3.5 47.5l2 17.5t3 17.5q10 51 32 85.5t48.5 56t52 30.5t43.5 9q12 0 26.5 -4t26 -14t17.5 -27t2 -43q-4 -22 -12.5 -43t-26 -46.5t-47 -58.5t-74.5 -79q-4 -4 -7.5 -7t-6.5 -7q5 -92 21.5 -177t31.5 -146
q2 -8 3 -11q21 13 39 26.5t31.5 25.5l23 21zM131 45q22 0 42 3.5t40 8.5q-9 30 -19.5 74t-18.5 99q-4 29 -6.5 58t-4.5 57q-115 -129 -127 -199q-2 -14 0 -31.5t12 -33t29.5 -26t52.5 -10.5zM252 627q-7 -49 -9 -103q48 47 82 84t39 66q2 14 -3.5 27.5t-20.5 13.5
q-16 0 -31 -8t-26.5 -20.5t-19.5 -28t-11 -31.5z" />
    <glyph glyph-name="quotesingle" unicode="'" horiz-adv-x="116" 
d="M152 749q23 5 32.5 3.5t8.5 -6.5q-3 -8 -10.5 -32.5t-18 -62l-23.5 -85.5l-27 -102q-2 -3 -7 -7q-5 -3 -13.5 -5.5t-22.5 -2.5q-14 -1 -20 1.5t-8 6.5q-3 4 -2 9q1 3 2 7q1 3 1.5 7t1.5 7l52 215q5 20 15.5 29.5t38.5 17.5z" />
    <glyph glyph-name="parenleft" unicode="(" horiz-adv-x="240" 
d="M313 779q-20 -18 -37.5 -42t-33.5 -51.5t-29 -56.5t-24 -56q-26 -64 -44 -135q-25 -104 -38 -197q-6 -40 -9.5 -81.5t-3.5 -79.5t4.5 -71.5t16.5 -56.5l-15 -71q-24 15 -45.5 59t-30 116.5t1 172.5t48.5 226q50 163 116.5 265.5t141.5 128.5l-19 -70v0z" />
    <glyph glyph-name="parenright" unicode=")" horiz-adv-x="209" 
d="M-95 -50q20 18 37.5 42t33.5 51.5t29 56.5t24 56q26 64 45 135q25 104 38 197q6 40 9.5 81.5t3.5 79.5t-5 71.5t-16 56.5l15 72q23 -15 44.5 -59.5t30 -117t-1 -172.5t-48.5 -226q-49 -163 -115.5 -265.5t-141.5 -127.5l18 69v0z" />
    <glyph glyph-name="asterisk" unicode="*" horiz-adv-x="335" 
d="M380 640q4 -1 7 -12.5t3.5 -25.5t0 -26t-1.5 -14q-3 -2 -18 -3q-13 -1 -39 -1t-74 2q-5 -1 -8 -3.5t3 -9.5q35 -32 53.5 -50.5t26.5 -28.5q10 -11 11 -15q-1 -5 -13 -13.5t-26 -17.5t-27 -15t-17 -6q-3 2 -9 16q-5 12 -13.5 37t-20.5 73q-5 11 -10 2l-36.5 -66t-21.5 -35
q-9 -13 -13 -16q-4 -2 -16 8t-24 23t-21.5 25.5t-9.5 16.5q2 3 14 13q11 8 33 22.5t64 37.5q7 7 -2 10q-45 11 -70 18t-37 12q-14 5 -17 9q-1 4 5.5 17t15.5 27t17.5 25.5t11.5 11.5q3 -1 14 -10l27 -24.5t48 -47.5q7 -6 9.5 -4.5t3.5 8.5q-2 45 -1.5 70t1.5 38q1 15 3 19
q2 3 17.5 2t33.5 -3t33 -6t15 -7q-1 -4 -7 -18q-5 -12 -17 -35l-33 -63q-3 -6 -1 -9t10 0q42 17 66 25.5t37 12.5q15 4 20 4z" />
    <glyph glyph-name="plus" unicode="+" horiz-adv-x="359" 
d="M351 372q-5 -17 -11.5 -24.5t-20.5 -6.5q-20 2 -50 1.5t-62 -1.5l-1 -1l-11 -56q-5 -22 -9 -41.5t-5 -25.5q-3 -6 -9.5 -9.5t-13.5 -5.5q-8 -3 -16 -4t-16 -1q-16 0 -26 7l32 135q-23 -1 -47 -4q-20 -2 -44 -6.5t-45 -9.5q-2 7 -1.5 15t2.5 15l4 16q3 8 10 19t14 14
q7 4 43 7.5t80 5.5l27 112q8 8 17 12t17 6q10 2 19 2t16 -2q5 -2 9 -4.5t2 -6.5q-6 -19 -11.5 -39.5l-10.5 -38.5q-5 -21 -11 -41q35 -1 62 -2t52 -5q14 -1 17 -8t-2 -24z" />
    <glyph glyph-name="comma" unicode="," horiz-adv-x="205" 
d="M52 75q26 -3 34.5 -23t3.5 -45q-2 -13 -8 -29.5t-17 -34.5t-27 -34.5t-39 -29.5q-9 -5 -15 -4t-8 5t-0.5 10t7.5 11q10 10 22.5 29.5t17.5 42.5q-5 -1 -9.5 -1.5t-9.5 0.5q-15 2 -26 13.5t-9 32.5q4 26 29 43.5t54 13.5z" />
    <glyph glyph-name="hyphen" unicode="-" horiz-adv-x="362" 
d="M310 289q-28 1 -71 0.5t-85 -1.5q-28 -1 -57 -4q-25 -2 -55 -6t-57 -12q-1 8 0 15.5t3 14.5q2 8 4 15q4 10 11.5 21t13.5 14q5 2 20.5 4t37 3.5t48 2.5t52.5 1q53 1 88 -0.5t67 -4.5q14 -2 16.5 -9t-3.5 -25q-6 -17 -13 -23.5t-20 -5.5z" />
    <glyph glyph-name="period" unicode="." horiz-adv-x="219" 
d="M51 76q26 4 41.5 -4.5t13.5 -31.5q-1 -13 -10.5 -24.5t-23 -20.5t-28.5 -14t-26 -5q-20 0 -35.5 9t-13.5 29q1 13 8.5 23.5t19 18.5t26 13t28.5 7z" />
    <glyph glyph-name="slash" unicode="/" horiz-adv-x="269" 
d="M357 749q25 5 33.5 3.5t6.5 -6.5l-22 -36l-42 -69.5l-55.5 -92.5l-61 -104l-58 -104t-47.5 -93l-47 -92l-39 -80.5t-32 -71.5q-16 -8 -28.5 -11.5t-22.5 -5.5q-11 -2 -21 -2q-20 0 -22.5 5t4.5 18l35 63l30 54.5l44 79.5l61 109.5l80 143.5l137 245q10 20 23.5 29.5
t43.5 17.5z" />
    <glyph glyph-name="zero" unicode="0" horiz-adv-x="501" 
d="M328 754q38 0 65.5 -28.5t43.5 -75t20.5 -107t-2.5 -124.5q-15 -129 -51 -214.5t-78.5 -136t-86 -71.5t-74.5 -21q-24 0 -47.5 15t-42.5 48t-31 84.5t-13 124.5q-1 46 10 101.5t30.5 112t47 109t60.5 93.5t71 65.5t78 24.5zM378 446q0 5 2 25.5t2.5 48t-1 57.5t-8.5 55.5
t-20.5 42t-35.5 16.5t-55.5 -38t-65 -105t-54 -159.5t-21.5 -201.5q0 -11 2.5 -35.5t9 -49.5t18.5 -44t31 -19q29 0 60.5 37.5t59 96.5t48 131.5t28.5 141.5z" />
    <glyph glyph-name="one" unicode="1" horiz-adv-x="279" 
d="M151 249l-15.5 -58.5t-13.5 -64.5t-5.5 -66t8.5 -63q-9 -5 -21 -7.5t-23 -3.5q-12 -2 -25 -1q-17 0 -26 7t-12.5 18.5t-1.5 27t8 32.5l41.5 141t67.5 293l10.5 56.5t8.5 41.5q-14 9 -28 21.5t-22 23.5q1 3 15.5 19t33.5 34t38 32t31 14q5 0 12.5 -5t15 -11.5t12 -14
t3.5 -12.5z" />
    <glyph glyph-name="two" unicode="2" horiz-adv-x="459" 
d="M327 -30q-2 15 -25.5 23t-51.5 12q-33 4 -73 5q-29 0 -54 -3q-22 -2 -42.5 -7.5t-28.5 -14.5q-13 -10 -34 -5t-28 34q-2 11 -6 21l-6.5 17t-8.5 14q15 30 32.5 54t39 47t48 46l59.5 52q31 26 65.5 62t64 81t50 98.5t23.5 115.5q2 51 -17.5 71t-48.5 20q-14 0 -32 -11.5
t-34.5 -32t-29 -47.5t-13.5 -57q-1 -8 1 -15q2 -6 4.5 -11.5t8.5 -8.5q-16 -13 -32 -17q-8 -2 -15 -2q-8 0 -19 1.5t-20.5 7t-16 16.5t-5.5 30t16.5 51t47 62.5t78.5 52.5t110 22q42 0 64.5 -18t32.5 -43t11 -50.5t0 -41.5q-2 -42 -19.5 -86t-45 -87t-62 -84t-69.5 -77
t-68.5 -66l-58.5 -51q-27 -23 -41.5 -46t-21.5 -43q24 12 66 24t96 12q32 0 59 -3q23 -2 44 -7.5t29 -15.5q2 -11 2 -20t-1 -17q-1 -9 -3 -16q-2 -8 -5 -16q-5 -14 -16 -32z" />
    <glyph glyph-name="three" unicode="3" horiz-adv-x="474" 
d="M393 234q-1 -39 -18 -84.5t-47.5 -84.5t-73 -65t-94.5 -26q-53 0 -85 15.5t-50 37.5t-24 46t-6 40t12.5 25t29.5 13.5t35 6t30 1.5q-3 -9 -5 -29t4 -39.5t23 -34.5t52 -15q27 0 51.5 19.5t43 49.5t29.5 66t12 69q1 34 -14 56t-47 22q-13 0 -27 -3q-12 -2 -27 -7.5
t-32 -14.5l-22 57q34 15 73 39t72.5 58t56 77.5t24.5 97.5q2 32 -16.5 52t-54.5 20q-18 0 -39.5 -8.5t-40.5 -24t-31.5 -37.5t-13.5 -49q0 -15 4 -26q3 -10 10.5 -18t21.5 -8q-14 -10 -26.5 -15.5t-21.5 -7.5q-11 -3 -20 -3q-12 0 -23.5 4t-20.5 13t-14.5 24t-4.5 37
t13.5 52t39.5 57t70 46t106 19q28 0 55 -8.5t48 -26.5t33 -45.5t11 -65.5q-1 -30 -14 -64t-36 -67t-55.5 -63t-73.5 -53q18 0 39.5 -5.5t39 -19.5t29 -38.5t10.5 -63.5z" />
    <glyph glyph-name="four" unicode="4" horiz-adv-x="463" 
d="M215 109q8 36 21 86l27 105q-50 -2 -103 -8t-115 -23q-8 5 -14 13l-11 15q-5 8 -10 17q-9 20 -10 37.5t16 31.5q9 7 24.5 23l36.5 39l46.5 52l54.5 62q57 66 85 102.5t32 51.5q24 10 43 15.5l33 9.5l27 6q29 5 36 -4t-1 -38q-4 -14 -13 -49.5l-20.5 -81.5t-23 -98.5
l-21.5 -100.5q15 -2 27 -6.5t20 -12t9.5 -19t-4.5 -27.5q-2 -6 -6 -14l-15 -36q-5 8 -12 14.5t-15 11.5q-9 5 -18 9q-15 -90 -24 -165t-7 -120q-12 -11 -24.5 -16.5t-22.5 -7.5q-12 -3 -23 -3q-24 0 -32 14.5t-7 37.5q1 18 5 38.5t9 38.5zM146 355q47 2 78.5 6.5t56.5 7.5
l17.5 68l16.5 62q16 59 26 101l16 69l-28.5 -35l-35.5 -42.5l-38.5 -46l-37.5 -44.5l-69 -81.5l-59 -69.5q11 2 25.5 2.5t31.5 2.5z" />
    <glyph glyph-name="five" unicode="5" horiz-adv-x="455" 
d="M156 714q1 1 1 0h-1zM261 660q-28 0 -50 -5l-17 -51l-21.5 -67.5t-22 -75.5t-18.5 -76q10 12 25 25.5t34 25t41 19.5t46 8q33 0 55.5 -12t35 -32.5t17 -47.5t1.5 -56q-5 -61 -28 -122t-59 -109.5t-82 -79t-96 -30.5q-26 0 -48.5 11.5t-39.5 29.5t-26.5 40.5t-7.5 44.5
q3 41 47 74q8 7 17 12q7 5 15 9.5t15 6.5q-6 -48 4 -74t25 -38q17 -14 41 -16q32 0 59 18.5t46.5 47.5t31.5 66t15 75q5 50 -13 78t-46 28q-30 0 -55.5 -19.5t-49.5 -48.5q-9 -11 -20 -14.5t-21.5 -3.5t-19.5 3.5t-14 6.5q-3 2 -8 6.5t-9 13.5t-4.5 24t7.5 39l20 60.5
l24 73.5l23 73t17 59q9 34 10.5 43.5t-0.5 10.5q5 1 24 6t47.5 10t64 9t71.5 4q39 0 63 -3.5t35.5 -12.5t12.5 -25.5t-6 -41.5q-3 -9 -8 -19q-5 -8 -12.5 -18.5t-18.5 -21.5q-11 22 -38.5 34.5t-56.5 17.5q-34 6 -74 7z" />
    <glyph glyph-name="six" unicode="6" horiz-adv-x="489" 
d="M180 -25q-24 0 -49.5 13.5t-46 44t-34 80.5t-14.5 123q-1 46 11 102t33.5 113.5t51.5 111.5t65.5 96t75 67.5t81.5 25.5q47 0 64.5 -20t22.5 -53q2 -14 2.5 -30.5t-3 -32.5t-11.5 -29.5t-22 -21.5q-12 -6 -24 -9q-11 -3 -25 -3t-29 5q17 28 26 53.5t10.5 45t-5 31
t-19.5 11.5q-18 0 -43.5 -23t-53 -64.5t-53.5 -99.5t-43 -129q37 54 78 76.5t71 22.5q17 0 39 -6t41 -24.5t32.5 -51.5t13.5 -87t-19 -113.5t-52.5 -109.5t-78 -82.5t-93.5 -32.5zM136 321q-5 -32 -7.5 -66.5t-2.5 -70.5q0 -11 3 -36t10.5 -50t20.5 -44t34 -19q28 0 55 32.5
t48.5 80t34 100t12.5 93.5q-1 41 -12.5 64.5t-36.5 23.5q-21 0 -37.5 -14t-29.5 -33.5t-22 -40.5l-15 -36q-11 -26 -17.5 -27.5t-19.5 12.5q-7 5 -11 13.5t-7 17.5z" />
    <glyph glyph-name="seven" unicode="7" horiz-adv-x="416" 
d="M428 608q-10 -13 -34 -49t-55 -88.5t-65 -116.5t-64 -133q-22 -52 -36 -96q-6 -19 -10.5 -38t-6.5 -36t-0.5 -30t8.5 -20q-28 -9 -50 -12q-12 -2 -23 -2q-27 -2 -36 17t-2 49q7 35 27 87t49 111.5t64.5 122t74.5 118.5l68.5 96l54.5 77q-19 5 -52 6.5t-82 -4.5
q-32 -4 -63 -13q-26 -8 -55.5 -20.5t-49.5 -31.5q-3 8 -4 16t-2 15q-1 8 -1 16q0 10 2 22.5t7 24.5t15 21.5t26 12.5q17 3 52 6.5t73.5 5.5t74.5 3t56 -1q40 -3 54.5 -14t13.5 -39q0 -14 -0.5 -23.5t-3.5 -18.5t-9 -18.5t-16 -22.5z" />
    <glyph glyph-name="eight" unicode="8" horiz-adv-x="455" 
d="M359 178q-1 -33 -16.5 -69t-43 -66t-64.5 -49t-80 -19q-36 0 -66.5 7t-53 25t-34.5 47.5t-11 74.5q1 43 18 81.5t43 72.5t58 62.5t62 51.5q-28 44 -38.5 78.5t-9.5 71.5q1 21 11 56t33.5 68t62 57.5t95.5 24.5q31 0 55 -10t39.5 -27t23 -38.5t7.5 -43.5q-2 -35 -18 -68.5
t-40.5 -63.5t-53.5 -56t-56 -45q31 -46 54.5 -102.5t22.5 -120.5zM211 588q-1 -32 6.5 -63t30.5 -69q26 22 51.5 46t46 49t33 48.5t12.5 44.5q1 32 -16 51.5t-47 19.5q-31 0 -53 -12.5t-36 -31t-21 -41t-7 -42.5zM266 161q1 33 -3 58t-12 47t-20 42t-27 41
q-24 -20 -48 -46.5t-44 -56.5t-32.5 -61t-13.5 -61q-1 -29 4.5 -48.5t15 -31t22.5 -16t26 -4.5q16 0 38 6.5t43 22.5t35.5 42.5t15.5 65.5z" />
    <glyph glyph-name="nine" unicode="9" horiz-adv-x="474" 
d="M319 753q40 0 67 -28.5t41.5 -76t16 -108t-9.5 -124.5q-22 -129 -62 -214t-85 -135t-89.5 -70.5t-76.5 -20.5q-15 0 -33 6.5t-33.5 19.5t-25.5 32t-9 43q2 17 8 35q5 15 15.5 31.5t28.5 28.5q5 -41 16.5 -62.5t24.5 -31.5q15 -11 33 -13q28 0 60.5 27.5t63 73.5
t56.5 105.5t41 123.5q-11 -24 -28.5 -53.5t-41.5 -55t-54.5 -43t-68.5 -17.5q-41 0 -63.5 23t-34 57t-13.5 71.5t0 66.5q1 19 8.5 49.5t21 65t34 69t49 62.5t64 45.5t79.5 17.5zM369 503q4 39 3.5 75.5t-6.5 64.5t-18.5 45t-33.5 17q-26 0 -55 -23.5t-54 -63.5t-43 -91.5
t-21 -107.5q-2 -38 3.5 -63.5t15 -40.5t21.5 -21.5t23 -6.5q24 0 45 22.5t37.5 53t28 63t16.5 52.5q4 17 11 21.5t27 3.5z" />
    <glyph glyph-name="colon" unicode=":" horiz-adv-x="232" 
d="M101 286q25 2 43.5 -8t16.5 -29q-2 -20 -24 -40t-54 -22q-26 -2 -44 8t-16 28q2 21 20 41t58 22zM51 76q26 4 41.5 -4.5t13.5 -31.5q-1 -13 -10.5 -24.5t-23 -20.5t-28.5 -14t-26 -5q-20 0 -35.5 9t-13.5 29q1 13 8.5 23.5t19 18.5t26 13t28.5 7z" />
    <glyph glyph-name="semicolon" unicode=";" horiz-adv-x="218" 
d="M88 286q25 2 42.5 -8t15.5 -29q-2 -20 -23.5 -40t-53.5 -22q-26 -2 -44 8t-16 28q2 21 20.5 41t58.5 22zM52 75q26 -3 34.5 -23t3.5 -45q-2 -13 -8 -29.5t-17 -34.5t-27 -34.5t-39 -29.5q-9 -5 -15 -4t-8 5t-0.5 10t7.5 11q10 10 22.5 29.5t17.5 42.5q-5 -1 -9.5 -1.5
t-9.5 0.5q-15 2 -26 13.5t-9 32.5q4 26 29 43.5t54 13.5z" />
    <glyph glyph-name="less" unicode="&#x3c;" horiz-adv-x="278" 
d="M84 321l12 -21t10 -18l34 -59l30 -51.5l28 -45.5q-5 -4 -13 -5.5t-16 -2.5q-10 -1 -21 -1q-25 0 -33 3t-13 12q-1 2 -12 20l-26 44l-32.5 57.5l-32.5 60.5q-2 5 -5.5 11t-3.5 10q0 1 2 4q3 4 14 14l175 148q7 6 14 10t16 7.5t21.5 6t31.5 4.5q16 2 25 1.5t13.5 -2t5 -3.5
t-0.5 -3q-5 -5 -27.5 -24.5l-54 -47.5l-69 -62z" />
    <glyph glyph-name="equal" unicode="=" horiz-adv-x="383" 
d="M341 382q-28 2 -66 1t-80 -2q-26 -1 -52 -3q-23 -2 -51 -5.5t-56 -11.5q-1 8 0 15.5t3 13.5l4 14q4 10 11.5 21t14.5 14q4 2 18 4t34 4t44.5 3.5t50.5 1.5t46 -0.5t36.5 -1t31 -2t30.5 -3.5q15 -2 17.5 -8.5t-3.5 -24.5q-6 -17 -13.5 -24t-19.5 -6zM300 259q-28 2 -66 1
t-80 -2q-26 0 -52 -3q-23 -2 -51 -6.5t-56 -11.5q-1 7 0 14.5t3 13.5q2 7 4 13q4 9 11.5 20t14.5 14q4 2 18 5t34 5.5t44.5 4.5t50.5 2t46 -0.5t36.5 -1t31 -2t30.5 -2.5q15 -2 17.5 -9t-3.5 -25q-6 -17 -13.5 -24t-19.5 -6z" />
    <glyph glyph-name="greater" unicode="&#x3e;" horiz-adv-x="257" 
d="M139 516q1 -2 12 -20l26.5 -44l33 -57.5l32.5 -60.5q2 -5 5.5 -11.5t3.5 -9.5q0 -1 -2 -4q-2 -2 -5 -6t-9 -9l-176 -148l-13.5 -9.5t-15.5 -7.5t-22 -5.5t-32 -4.5q-16 -2 -25 -1.5t-13.5 2t-5.5 3.5t1 3l28 24.5l54 47.5l69 62l73 68l-12.5 20.5t-10.5 18.5l-34 58
l-29.5 50.5l-27.5 46.5q4 3 12 4.5t16 2.5q10 1 21 1q25 0 33 -3t13 -11z" />
    <glyph glyph-name="question" unicode="?" horiz-adv-x="423" 
d="M295 758q25 0 58 -7t61.5 -25t46.5 -48.5t12 -76.5q-10 -74 -46.5 -127t-83 -88.5t-94 -54t-77.5 -23.5l-25 -103q-4 -17 -12 -33.5t-21.5 -28.5t-33 -19t-45.5 -5l51 202q4 16 16.5 27t47.5 19q44 8 88.5 27t80.5 61q10 11 20.5 27.5t20.5 36t17 40.5t10 42q3 19 -1 37
t-16 31t-33.5 21t-54.5 8q-26 0 -49 -8t-40 -21.5t-28 -30.5t-13 -35q-1 -11 0 -21q1 -9 4 -18t11 -16q-46 -12 -68 -3.5t-31 24.5q-11 18 -9 46q5 38 33 65t64.5 44.5t74.5 25.5t64 8zM71 73q26 0 44 -11t16 -31q-2 -11 -9 -21.5t-18.5 -19.5t-26.5 -14.5t-31 -5.5
q-27 0 -45 11.5t-16 30.5q3 22 23.5 41.5t62.5 19.5z" />
    <glyph glyph-name="at" unicode="@" horiz-adv-x="664" 
d="M646 341q-4 -70 -30 -129t-63 -102.5t-79 -68t-76 -24.5t-51 13.5t-22.5 33t-2.5 40t8 34.5q2 4 4 10t5 14q-22 -18 -51.5 -33.5t-64.5 -15.5q-53 0 -80 33t-23 90q2 31 14.5 65.5t33 67t47 62t55 51.5t58 35t55.5 13q20 0 32 -7t19 -18.5t9 -24.5t2 -25l2 6
q11 33 20.5 43.5t25.5 -11.5q6 -8 10 -17q4 -8 6 -16t0 -13l-46.5 -110l-33.5 -82l-27 -69q-15 -36 -17.5 -58.5t2 -34t14.5 -14t21 0.5q22 7 48.5 31t49.5 59.5t40 80t20 92.5q4 50 -5 98.5t-33 87t-63.5 62t-96.5 23.5t-115.5 -27.5t-107 -76.5t-80.5 -116t-36 -145
q0 -55 24 -103q10 -20 26 -40.5t40 -38t57.5 -30.5t77.5 -19q-5 -17 -16.5 -28t-38.5 -4q-10 2 -33 7.5t-50.5 17.5t-57 33t-52.5 54t-36.5 79t-8.5 110q3 36 16.5 77t37.5 82.5t58.5 79.5t79.5 67t99.5 46.5t118.5 17.5q70 0 121 -29t83.5 -74.5t46 -101.5t10.5 -111z
M243 172q52 0 99 55.5t71 161.5q-15 -12 -33.5 -19t-37.5 4q14 16 21.5 29.5t11.5 24.5q4 12 5 22q2 14 -3 19.5t-11 5.5q-16 0 -44 -18.5t-55.5 -50.5t-49.5 -75t-25 -92q-1 -21 4 -34.5t13 -20.5t17 -9.5t17 -2.5z" />
    <glyph glyph-name="A" unicode="A" horiz-adv-x="566" 
d="M433 753q35 0 57.5 -19.5t19.5 -70.5q-1 -17 -8 -63.5l-17 -109.5l-22.5 -135.5l-23.5 -141.5h21q10 0 22 1t25 3q-5 -12 -11 -22.5t-12 -18.5q-7 -9 -14 -16q-9 -11 -21 -19.5t-23 -13.5q-7 -49 -11.5 -87.5t-5.5 -63.5q-2 -38 2 -71q3 -29 12 -59t29 -48l-116 -38
q-12 17 -17.5 45.5t-7.5 56.5q-3 33 -1 68t11 91.5l20 123.5q-20 6 -43.5 10t-52.5 4q-26 0 -54.5 -2t-56.5 -5q-12 -44 -24 -93q-13 -53 -23.5 -90.5t-20 -62.5t-19 -40t-20.5 -22q-12 -6 -30 -11q-17 -5 -43 -10t-67 -8q15 18 26 33t22 37t24.5 56.5l34.5 90.5
q9 23 18.5 50.5t20.5 56.5q-36 -5 -61 -9t-30 -6q-8 -1 -13 0q-13 2 -14 13q1 14 9.5 19t25.5 12q8 4 36.5 14.5t69.5 22.5l29.5 83.5l28.5 79.5l27 71.5t24 57.5q17 37 43.5 81.5t61 83.5t76 65t87.5 26zM422 545q11 45 15 74t3 45.5t-6.5 23t-13.5 6.5q-13 0 -32 -10
t-40 -28.5t-41.5 -46t-36.5 -62.5q-23 -52 -52 -127.5t-63 -192.5q20 3 39.5 5t38.5 2q34 0 65 -2.5t57 -5.5l18.5 94.5l18.5 88.5l16.5 77t13.5 59z" />
    <glyph glyph-name="B" unicode="B" horiz-adv-x="622" 
d="M535 94q-6 -67 -40 -120t-86.5 -89.5t-118.5 -55.5t-136 -19q-26 0 -48.5 3.5t-40.5 8.5t-30.5 9.5t-17.5 7.5q-9 5 -14.5 12.5t-6.5 21.5q-1 8 -1 12.5t1 9.5t3.5 13.5t6.5 23.5q2 9 15.5 56.5l32.5 116l41.5 148.5l43.5 155l38 135.5l25 89.5q-14 -10 -27.5 -21
t-27.5 -24q-15 -14 -29.5 -9.5t-20.5 24.5q-2 10 -3 21q-1 9 0.5 20.5t7.5 22.5q33 20 64.5 34t60.5 25q6 17 13.5 26t15.5 12t17 2t19 -3q22 -5 29 -14q14 2 27 3t27 1q58 0 101 -15t70.5 -40.5t39.5 -59.5t9 -72q-3 -33 -17.5 -68.5t-38.5 -70t-56 -67t-71 -59.5
q31 -18 55 -42t40 -52t23 -57t5 -56zM204 339q-2 -10 -4.5 -20l-5.5 -21q12 13 40.5 24t54.5 11q14 0 27 -1.5t25 -3.5q28 18 54 46.5t45.5 61t32 66.5t15.5 63q6 69 -23.5 102.5t-83.5 33.5q-36 0 -75 -13l-20 -64.5l-25.5 -84.5l-28.5 -97t-28 -103zM187 273
q-14 -54 -28 -117q-13 -54 -28 -125.5l-32 -152.5q6 -5 16 -7l20 -4q11 -2 24 -2q45 0 91.5 18.5t85.5 52.5t65.5 82.5t31.5 108.5q2 27 -3.5 48.5t-16 39t-24 31t-28.5 23.5q-46 -25 -101 -42q-18 -5 -31 -1.5t-22 11t-14 17.5t-6 19z" />
    <glyph glyph-name="C" unicode="C" horiz-adv-x="562" 
d="M215 -186q-50 0 -90.5 24t-69 66t-43 98.5t-12.5 120.5q2 60 15.5 130t38.5 140.5t60.5 136t81.5 115.5t102 80.5t123 30.5q41 0 69.5 -16.5t46 -43.5t24.5 -61t6 -69q-2 -33 -9.5 -64t-21 -55.5t-33 -39t-44.5 -14.5q-12 1 -23 8q-10 6 -20.5 18t-19.5 35
q27 11 42.5 38.5t23.5 57.5q9 34 12 76q2 41 -17 60t-43 19q-47 0 -99 -49t-96.5 -132.5t-75 -194.5t-35.5 -235q-2 -56 7.5 -95t27 -64t39.5 -36t44 -11q35 0 66 15t56.5 37t44 45.5t28.5 41.5q7 13 15 16t14 -1.5t8 -14t-4 -22.5q-17 -34 -41.5 -68t-55 -61.5t-66.5 -44.5
t-76 -17z" />
    <glyph glyph-name="D" unicode="D" horiz-adv-x="648" 
d="M4 -129q-9 6 -9.5 13t3.5 14q4 8 12 16q8 7 19 35.5t23.5 69t25 88.5l23.5 94t19 85t12 62l11 61q5 29 11 67.5t11 85.5l80 36q17 8 24 -3.5t0 -47.5q-3 -18 -11 -58.5t-18.5 -89l-22 -99t-22.5 -89.5l-23 -85l-64 -224q14 -24 52 -24q42 0 97.5 32t107.5 96t91.5 160.5
t49.5 225.5q5 70 -7 123t-36.5 89t-60 54t-78.5 18q-101 0 -209 -84l-5 83q26 29 59.5 44.5t62.5 23.5q34 9 69 10q64 0 123.5 -24.5t103 -74.5t66.5 -125.5t16 -176.5q-4 -58 -23.5 -120.5t-51 -122.5t-74.5 -114t-94 -94.5t-109 -64t-120 -23.5q-19 1 -41 7q-19 5 -43 17
t-50 34z" />
    <glyph glyph-name="E" unicode="E" horiz-adv-x="536" 
d="M195 -186q-47 0 -87.5 15t-71 42t-48.5 63.5t-19 79.5q-1 56 17.5 100t49 78t69.5 57.5t80 38.5q-22 12 -41.5 29t-34.5 38t-24 44t-9 46q-2 70 28.5 127t78.5 97.5t107.5 62.5t116.5 22q38 0 65 -12.5t44 -31t25.5 -40t9.5 -39.5q1 -33 -8.5 -67t-24 -61.5t-32.5 -45
t-35 -17.5q-13 0 -27 4q-12 3 -28 10t-32 21q26 10 46 28.5t33.5 41.5t20 47.5t6.5 46.5q-1 32 -15 49.5t-45 17.5q-42 0 -84 -20.5t-74.5 -57t-51 -87t-12.5 -109.5q5 -45 27.5 -76t42.5 -48q16 2 30 3.5t26 1.5q17 0 34 -6t17 -17q0 -8 -3.5 -18t-11.5 -19t-19 -15t-26 -6
q-12 0 -29 6t-34 15q-38 -8 -69 -28.5t-52.5 -48.5t-33.5 -61t-11 -64q1 -29 9 -58.5t25 -52.5t44.5 -37.5t66.5 -14.5q29 0 55.5 12.5t49.5 31.5t42 42t33 45t23.5 40l13.5 26q3 6 8.5 9t11 1.5t8.5 -7.5t0 -18q-8 -36 -30 -80.5t-56.5 -83.5t-81 -65.5t-103.5 -26.5z" />
    <glyph glyph-name="F" unicode="F" horiz-adv-x="600" 
d="M383 352l42 83.5l38 77.5t29 64.5t14 45.5q2 18 -3 31t-16.5 21t-27 12.5t-34.5 5.5q-33 2 -78.5 -1.5t-87.5 -13t-72.5 -26.5t-32.5 -42q-1 -14 5 -25q5 -9 18.5 -17t40.5 -6q5 0 12 1l15 2.5t21 4.5l-49 -66q-14 -20 -30 -24t-29 -2q-7 1 -27.5 7t-41 18t-35.5 32.5
t-12 51.5q4 36 31 66.5t75.5 52.5t116 34t152.5 12q64 0 102 -13.5t55.5 -35t17 -50t-12.5 -58.5q-6 -14 -17.5 -38.5l-27.5 -57l-34 -71.5l-36 -81q27 -2 49.5 -5t35.5 -5q15 -4 10 -13q-9 -18 -17.5 -27t-18.5 -12.5t-22 -3t-27 1.5q-9 0 -18 0.5t-19 1.5l-36.5 -89
l-32 -83.5t-25.5 -72.5t-15 -55q-6 -31 -9 -58q-2 -23 -2 -48t8 -40q-21 -6 -36.5 -10t-26.5 -6l-20 -5q-28 -7 -39.5 1.5t-6.5 40.5q2 22 6.5 49.5t14 62t25 77t39.5 94.5l32 66.5l38 78.5q-44 0 -95 -6q-28 -4 -55 -9q-23 -5 -49.5 -11.5t-49.5 -14.5q-3 8 -3.5 16t0.5 15
t3 14t6 14q6 12 19 30q47 6 90 9t76 5q39 2 73 2q5 1 8.5 0.5t8.5 -0.5z" />
    <glyph glyph-name="G" unicode="G" horiz-adv-x="627" 
d="M219 -195q-49 0 -88 25.5t-66 69.5t-39.5 102t-9.5 123q4 69 21 142.5t46 143.5t67.5 133t85 110t99.5 74.5t111 27.5q38 0 64 -19t40.5 -49.5t18.5 -68.5t-0.5 -75.5t-17 -72t-30.5 -56.5q-23 -29 -41.5 -30.5t-35.5 10.5q-7 6 -14 14q-7 7 -15 17.5t-17 26.5
q19 7 35 23.5t27.5 37.5t18 44.5t7.5 46.5q1 18 -1 35.5t-8 31t-16.5 22t-26.5 8.5q-40 0 -78 -30.5t-71.5 -81t-62 -115.5t-49.5 -134t-34 -136t-16 -122q-4 -69 5 -112t24.5 -67.5t33.5 -33t33 -8.5q28 0 63 26t67 70.5t57.5 102.5t36.5 122q-25 0 -50.5 -0.5t-48.5 -1.5
t-41 -2.5t-28 -3.5q-7 3 -9.5 7t-4.5 9q-2 4 -2 10t2 11t5 10.5t8 11.5q32 6 63 10t64.5 6.5t72 4t86.5 2.5q20 1 24.5 -5t-3.5 -30q-6 -19 -15.5 -31t-31.5 -10q-7 0 -11 1q-9 -59 -38 -125t-71 -122t-92.5 -93t-102.5 -37z" />
    <glyph glyph-name="H" unicode="H" horiz-adv-x="665" 
d="M23 -189q-24 0 -29.5 5.5t-1.5 21.5q1 5 10 44.5l22.5 96l29 122.5l29.5 124q-21 -2 -31 3.5t-9.5 15t11 19.5t30.5 17q4 2 12 4q5 17 9 35q4 15 8 32l8 33l70 299q6 23 18.5 34.5t46.5 19.5q28 7 39 5.5t10 -6.5l-15 -53l-28.5 -102.5l-35.5 -133l-37 -143.5
q60 9 146 15q33 4 64.5 5t60.5 0l27.5 108l25.5 100l21.5 81.5t14.5 52.5q6 19 11.5 31t13 19t17.5 10t23 5q7 0 17 1q8 0 19 0.5t25 -1.5q-38 -102 -70.5 -206.5t-60.5 -203.5q18 -2 31.5 -3t21.5 -3q24 -4 30.5 -13t-4.5 -26l-12 -15q-6 -8 -15 -18.5t-23 -23.5l-16.5 6
l-16.5 6q-10 3 -19 6l-13 -46.5t-11 -45.5q-12 -49 -23 -101q-9 -45 -18.5 -99.5t-14.5 -107.5q-8 -4 -16 -5.5t-14 -2.5l-14 -2h-1h-2h-2h-8t-8 2q-5 1 -10 3t-9.5 3.5t-9.5 4.5q8 33 12.5 62t6.5 51q3 26 4 46q1 26 -5.5 57t-20 61t-33 56t-44.5 44q-25 17 -47.5 22
t-45.5 3l-13 -58t-10 -54l-21 -113l-16.5 -97.5t-12.5 -86.5q-16 -8 -30 -12.5t-25 -6.5q-12 -3 -23 -3zM419 255q-35 4 -66.5 4.5t-55.5 0.5q20 -11 35.5 -29t32.5 -41q16 -21 26 -46t17 -48q8 42 17 82l17 75q-6 1 -11.5 1.5t-11.5 0.5z" />
    <glyph glyph-name="I" unicode="I" horiz-adv-x="550" 
d="M260 253q-19 20 -30.5 49.5t-17.5 58.5q-7 33 -10 70q-5 72 16 131t57 101t80.5 65t86.5 23q19 0 30.5 -9t17.5 -22t7.5 -27t1.5 -23q0 -32 -1.5 -63t-5 -66t-10.5 -75t-18 -89q-6 -27 -17 -69t-26 -93q45 -1 72.5 -3.5t35.5 -3.5q7 -1 10.5 -7t-4.5 -19
q-8 -12 -22.5 -14t-28.5 -2h-29.5t-50.5 -2q-21 -62 -47.5 -124.5t-58.5 -113t-70 -82t-81 -31.5q-62 0 -104.5 23.5t-69 55t-38.5 63t-12 48.5q0 30 16 61t50.5 58.5t89.5 48.5t132 32q32 4 61 6.5t55 4.5l40.5 153t35.5 144q6 27 12 58.5t9.5 59.5t4 47t-4.5 21
q-3 1 -15 -7.5t-28 -24.5t-31.5 -38.5t-25.5 -48.5q-18 -51 -28 -100q-8 -42 -10 -89t15 -85q-2 -14 -6 -23q-3 -5 -5 -9l-7 -7q-4 -3 -9.5 -6.5t-13.5 -5.5zM248 -26q11 23 27 71t34 111q-49 -6 -99 -16.5t-90.5 -28t-66 -42.5t-25.5 -59q0 -36 14.5 -63t35 -45t42 -27.5
t36.5 -9.5t28.5 11.5t25 28t21 35.5z" />
    <glyph glyph-name="J" unicode="J" horiz-adv-x="513" 
d="M71 -197q-29 0 -57 11.5t-50 32.5t-35 51.5t-11 69.5q3 68 27 126t56 100t65 65.5t55 23.5q14 0 25.5 -9.5t18 -24t8 -32t-4.5 -33.5q-10 7 -37 -5t-56 -40.5t-52 -70.5t-26 -94q-2 -34 3.5 -58t16 -39t24 -22t28.5 -7q36 0 66 27t55 75.5t47 116t42 149.5l15.5 62
l20.5 80.5l23.5 90l23.5 89l21 79l16 59.5q-33 0 -66 -4q-28 -3 -58 -8.5t-50 -14.5q-2 1 -3 5.5t-2 9.5q-1 6 -2 13q-1 8 0 16q1 7 2 15.5t4 17.5q26 8 60.5 12.5t64.5 6.5q35 3 72 3q27 0 56 -3q25 -2 56 -6t62 -12q7 -7 9 -16q1 -4 1 -9q0 -8 -3 -15q-2 -6 -6.5 -12.5
t-11.5 -10.5q-11 3 -27.5 4.5t-32.5 3.5q-18 2 -38 3l-106 -472q-4 -17 -14 -53.5t-27.5 -81t-42 -91.5t-57.5 -85.5t-75 -63.5t-93 -25z" />
    <glyph glyph-name="K" unicode="K" horiz-adv-x="509" 
d="M19 200q-5 22 0.5 28.5t25.5 11.5l13 55l12 51q17 72 32.5 128.5l29 101.5t25.5 81l23 67q11 8 22 12.5t21 7.5q11 4 23 6q10 1 18 0q7 -1 12 -4t6 -9q-38 -101 -65.5 -187t-45.5 -149q-21 -74 -35 -135q48 19 92.5 54.5t81.5 79t66.5 91t47.5 91.5t24.5 81t-2.5 59
q24 11 45 17q11 4 21 6q26 7 32.5 -8.5t4.5 -46.5q-3 -71 -35.5 -139t-82.5 -127.5t-110.5 -106.5t-119.5 -74q17 2 33 3t30 1q27 0 50 -5.5t40.5 -18.5t27 -34t8.5 -52q-2 -48 -13 -85t-23.5 -68.5l-23.5 -58.5t-12 -55t8 -46.5t23.5 -30t30.5 -16.5t30 -5q17 0 37 3.5
t35 8.5q6 2 9.5 -3t3.5 -9t-5 -14.5t-19 -16.5q-14 -7 -36 -14t-60 -7q-25 0 -52 11.5t-49 32t-36 47.5t-12 58q1 33 12 66t23.5 64l23 59.5t11.5 53.5q2 45 -23 67.5t-85 22.5q-20 0 -37.5 -2t-28.5 -4q-27 -136 -37 -205t-11 -90v-18q0 -8 1 -16.5t3 -16.5
q-18 -13 -35.5 -19.5t-31.5 -9.5q-17 -4 -31 -4q-7 0 -13 2l-10.5 4t-7.5 7l31 129l26 111l25 107q-4 4 -7 9t-5 14z" />
    <glyph glyph-name="L" unicode="L" horiz-adv-x="504" 
d="M165 340q-51 0 -82.5 11t-42.5 28q-5 7 -9 21t3 31q14 -11 30.5 -16.5t30.5 -7.5q17 -3 33 -3q30 0 58.5 5t56.5 14q12 60 23.5 108t26.5 78q16 33 33.5 59.5t39 45t47.5 28.5t60 10q25 0 39.5 -10t22 -25t9 -32.5t1.5 -32.5q0 -33 -16 -72t-45 -77t-69.5 -72t-90.5 -56
l-33.5 -130.5t-32.5 -106.5q-14 -39 -35.5 -87t-52.5 -92l38.5 -25t39.5 -23.5t40.5 -17.5t43.5 -7q24 1 47 7q20 5 42 16.5t41 32.5q7 -12 4.5 -36t-15.5 -48t-37 -42t-60 -18q-38 0 -71 10.5t-62 25.5t-54.5 32.5l-47.5 32.5q-30 -29 -66 -47t-80 -18q-35 0 -56 19.5
t-19 52.5q1 12 7 28.5t22.5 31.5t45.5 25.5t75 10.5q17 0 32.5 -3.5t30.5 -8.5q11 20 22 46l24 59q23 63 40 126.5t29 123.5q-14 -3 -29.5 -4t-31.5 -1zM-1 -112q13 5 30 10t39 28q-15 5 -23 5q-36 0 -52.5 -10.5t-16.5 -20.5q0 -7 6 -10.5t17 -1.5zM377 584q-5 -15 -13 -44
t-17 -67q54 35 86.5 80t32.5 90q0 27 -16 27q-14 0 -36 -21.5t-37 -64.5z" />
    <glyph glyph-name="M" unicode="M" horiz-adv-x="751" 
d="M23 -187q-39 -1 -64.5 14t-40 43.5t-18.5 69t0 88.5q5 37 18 77q11 34 33.5 75t60.5 80q8 -2 13 -4.5t8 -5.5q3 -4 4 -7q2 -11 -6 -25t-16 -30q-22 -46 -33 -87t-14 -76q-2 -30 0.5 -54.5t7.5 -42t11 -27t11 -9.5t10.5 7t10.5 17q6 10 14 30.5t17 47.5t17.5 58.5
t15.5 63.5q14 64 30 144.5t47 168.5q10 37 25 81q12 38 30.5 88.5t42.5 109.5q0 5 8.5 9.5t19.5 9.5q12 5 27 10q20 7 31.5 8t17.5 -3t8 -10.5t2 -14.5q2 -33 2.5 -62t1.5 -51q1 -26 1 -47q1 -28 -3 -74.5l-8.5 -97.5t-8 -99.5t-1.5 -80.5q0 -17 1.5 -31.5t3.5 -28.5
q13 36 29 75.5l32 76l30 68t22 52.5q12 28 32 71l40.5 86l38 79t25.5 50q6 10 20.5 18t31 14t31 8.5t19.5 0.5q13 -3 18.5 -8t6.5 -7q2 -4 3 -13.5t-1 -29.5q-2 -24 -11.5 -73t-23 -111.5l-29 -133.5l-29.5 -139.5t-24.5 -128.5t-13.5 -101q-2 -46 6 -81q3 -15 9 -29
t16 -24.5t24 -15.5t33 -3q-25 -17 -49 -25t-47 -8q-25 -1 -44 7.5t-32 24t-19 37t-4 47.5q2 24 13 79t26.5 124.5t34 145l35 142l28.5 114.5t15 63q2 12 3.5 22.5t3.5 18.5l-24.5 -48l-30.5 -60l-32.5 -66.5l-31.5 -66.5l-49 -106.5t-43 -103.5t-31.5 -88t-14.5 -60v-14
q0 -6 0.5 -14t2.5 -15l-40 -31l-15.5 -5t-12.5 -2q-23 0 -35 24q-12 22 -22 86t-6 157q2 46 6.5 93l9 90l8.5 80.5t4 64.5q1 20 -1 36.5t-4 30.5q-9 -23 -20 -62.5t-23 -87.5l-24.5 -101l-24 -102l-21.5 -90.5l-16 -66.5q-10 -40 -20 -91t-25 -96.5t-39 -77t-62 -32.5z" />
    <glyph glyph-name="N" unicode="N" horiz-adv-x="554" 
d="M156 472q-5 -18 -12.5 -51.5t-16 -76.5l-18 -90.5t-17 -93.5t-13.5 -86.5t-7 -68.5q-1 -31 0 -61q1 -26 3.5 -54.5t9.5 -50.5q-17 -8 -30 -11.5l-21 -5.5q-10 -2 -17 -2q-8 0 -19 1.5t-20 10.5t-15 28t-4 55q1 24 7.5 59.5t15.5 78t20.5 88l22.5 89l20.5 82.5l16.5 67
l20 84l57 246q7 5 15 9.5t14 7.5q7 4 14 6q32 12 45.5 3t15.5 -36q1 -18 4.5 -52t6.5 -76t5 -86.5t2 -82.5q0 -25 1 -59t3 -72t5 -77.5t7 -75.5t8.5 -66t9.5 -49q2 -8 4.5 -15t4.5 -14q6 24 13.5 57l16 70.5t16.5 77t14 74.5q5 28 11 72t14 95l-21 8q-9 4 -18 10t-15 14
q1 13 2.5 19t9.5 1q6 -3 18.5 -7t29.5 -6q5 28 11.5 56t13.5 54q11 43 25 77.5t32.5 58.5t43.5 37t58 14q31 0 50.5 -25.5t16.5 -88.5q-2 -47 -19.5 -84.5t-42.5 -66t-55 -47t-57 -26.5q-9 -47 -17 -94.5l-15.5 -92t-15 -84.5t-14.5 -71l-15 -65q-7 -30 -17 -69l-21 -82
q-4 -9 -10 -15.5t-12 -10.5q-7 -5 -14 -8q-20 -8 -34 -3t-25 27q-11 23 -19.5 57t-17.5 74q-9 43 -13.5 93.5t-7 103t-3.5 104.5t-4 98q-5 60 -10 107.5t-11 80.5l-9 -45t-11 -51zM492 514q-5 -19 -8 -36q24 14 45 35.5t36 45.5t23.5 48t9.5 44q1 14 -2.5 22.5t-12.5 8.5
q-5 0 -15.5 -5.5t-23.5 -23t-26.5 -50.5t-25.5 -89z" />
    <glyph glyph-name="O" unicode="O" 
d="M524 336q-5 -63 -20 -126.5t-37.5 -122.5t-52.5 -110.5t-66.5 -89.5t-78 -60t-86.5 -22q-9 0 -27.5 3.5t-39.5 16t-42.5 36.5t-37.5 64.5t-23 100.5t0 145q12 134 49.5 243.5t86 187.5t100.5 120.5t92 42.5q16 0 26.5 -6.5t16.5 -16.5q7 2 16 3t20 1q29 0 51.5 -30
t37 -84t19 -129.5t-3.5 -166.5zM186 -137q39 0 80 40t76 108.5t60 159.5t34 193q2 27 3 62t0 71t-4.5 71.5t-9.5 62.5t-15 44t-21 17q-13 -1 -26 -8q-11 -6 -25.5 -19.5t-28.5 -37.5q-3 2 -4.5 6t-3.5 8t-3 9q-2 3 -2 7.5t-1 10.5q-20 -22 -47.5 -62.5t-55 -100.5
t-50 -141.5t-31.5 -185.5q-8 -92 -4 -153t15.5 -97t28.5 -50.5t35 -14.5z" />
    <glyph glyph-name="P" unicode="P" horiz-adv-x="566" 
d="M-51 -143q4 3 12.5 10t20 26t25.5 55t29 98l21 84l28.5 109l31.5 119.5l31 117l27 100.5l19 70q-19 -12 -37 -27q-16 -13 -34 -29.5t-35 -34.5q-13 11 -20 24q-4 6 -7 13q-6 15 -6 31t25 33q13 9 39.5 26t65.5 33.5t91 28.5t115 12t101.5 -25t59 -61t26.5 -76t3 -70
q-6 -56 -36 -117t-83 -112.5t-129 -87.5t-174 -41l-16 -78t-17 -78.5t-18.5 -72t-19.5 -57.5q-10 -26 -26 -41.5t-51 -15.5q-18 0 -33.5 9t-28.5 25zM186 313l-7.5 -41.5l-10.5 -57.5q27 4 60 14.5t66 28.5t64.5 43.5t57.5 59t43.5 76t22.5 94.5q5 50 -5.5 83.5t-30.5 54
t-46 29t-52 8.5q-25 0 -49 -7t-48 -18q3 -1 7 -5q6 -6 9 -17l-39.5 -162t-24.5 -106q-11 -48 -17 -77z" />
    <glyph glyph-name="Q" unicode="Q" horiz-adv-x="597" 
d="M385 755q39 0 68 -17t49 -44.5t32 -61.5t18 -68.5t7.5 -65.5t0.5 -51q-5 -78 -22.5 -150t-43.5 -135.5t-59 -117t-69 -95.5l10.5 -11l10.5 -11q28 -28 57 -47q25 -17 55 -28.5t57 -3.5q1 -14 -8.5 -21.5t-20.5 -11.5q-13 -4 -31 -5q-23 0 -48.5 9.5t-49 23t-44.5 29.5
t-35 28q-45 -44 -88.5 -66t-80.5 -22q-61 0 -87 26.5t-23 65.5q1 19 12 40t30.5 38.5t46.5 28.5t62 11q34 0 60.5 -6t52.5 -20q32 45 61 101.5t51.5 117.5t37.5 123t19 118q4 72 -4 118.5t-23 74t-33 38.5t-33 11q-34 0 -75.5 -33.5t-79.5 -93.5t-66 -142t-35 -179
q-1 -42 8 -75q4 -14 10.5 -27.5t16.5 -24t24 -16.5t33 -5q-2 -17 -13 -26t-23 -13q-14 -5 -32 -5q-15 0 -37 12.5t-42.5 39.5t-33.5 69.5t-8 102.5q3 40 14.5 90.5t32.5 103t50.5 102.5t68.5 89.5t87 63.5t105 24zM152 -119q26 0 54.5 17.5t56.5 47.5q-24 16 -51 16
q-19 0 -34.5 -5.5t-26.5 -14.5t-17.5 -19.5t-6.5 -20.5q-1 -9 5 -15t20 -6z" />
    <glyph glyph-name="R" unicode="R" horiz-adv-x="574" 
d="M180 216q12 2 24 4.5t26 6.5q-17 16 -45 20q-3 -16 -5 -31zM589 525q-4 -43 -22.5 -90t-51.5 -91t-80 -82t-107 -62q9 -17 17 -36t14 -43q9 -32 15.5 -66t11 -66t8 -59.5t5.5 -45.5q4 -30 19.5 -42.5t35 -14t39 4.5t30.5 13q-1 -1 -11 -17.5t-27 -35t-40.5 -32
t-52.5 -8.5q-20 3 -35.5 13.5t-27 31t-18.5 52.5t-9 78q-2 62 -4.5 118.5t-21.5 104.5l-6 15.5t-7 13.5q-41 -10 -92 -13l-15 -78t-16.5 -78t-18 -71.5t-18.5 -57.5q-10 -25 -25.5 -40.5t-49.5 -15.5q-20 0 -35 9t-29 25l12.5 9.5t20 26t25 55.5t27.5 97q5 25 13.5 58.5
l18.5 73.5q-40 22 -37 59q2 23 21 39t46 22l26.5 105l25.5 99.5l22 84l16 59.5q-18 -12 -36 -27l-34.5 -29.5t-34.5 -34.5q-8 6 -13 13t-8 12q-4 6 -6 13q-7 14 -7 30.5t24 33.5q13 9 39.5 26t65.5 33t90.5 28t114.5 12t102 -25t60 -61t27.5 -76t3.5 -70zM287 250
q35 17 69.5 42t62.5 60t47 79.5t24 100.5q4 50 -6.5 83.5t-31 53.5t-46.5 28.5t-52 8.5q-24 0 -48.5 -7t-47.5 -18q3 -1 7 -5q2 -3 4.5 -7.5t3.5 -9.5q-23 -97 -37 -162l-23 -106q-11 -48 -16 -77q-1 -4 -1.5 -8t-1.5 -9q22 -5 46 -15.5t47 -31.5z" />
    <glyph glyph-name="S" unicode="S" horiz-adv-x="486" 
d="M367 459q-1 3 6 15.5t15.5 31t17 42t12 48.5t-0.5 50t-21 48q-10 12 -29.5 13.5t-44 -6t-51 -23t-48.5 -36t-37.5 -45.5t-17.5 -51q-2 -21 1.5 -39t9.5 -33t13 -28t13 -23q8 -14 25 -31l37 -38.5t40 -48.5t35 -61t21 -76t-1 -93q-11 -74 -35 -123.5t-52.5 -79.5
t-57.5 -43.5t-48 -17.5q-15 -3 -35.5 -5.5t-43 1t-45.5 14t-41 32.5q-21 25 -33 54q-11 25 -16.5 57.5t5.5 67.5q8 9 17 16t18 12q10 6 21 11q13 4 26 7q11 2 23.5 2.5t23.5 -3.5q-15 -17 -21 -32q-4 -8 -6 -14q-4 -19 -2.5 -45.5t11 -51t27.5 -42t48 -18.5q73 -2 124 114
q17 36 17.5 73t-9 71t-25 63.5t-31.5 50.5t-38.5 45.5t-44.5 53.5t-39.5 63t-23.5 74q-8 56 10.5 102.5t50 81.5t69 57t66.5 28q161 32 211 -54q21 -33 23 -70t-4.5 -68.5t-16 -53t-12.5 -23.5q-6 -6 -19 -13t-42 -13q-8 -2 -16 -2q-7 0 -15 1t-14 4z" />
    <glyph glyph-name="T" unicode="T" horiz-adv-x="434" 
d="M61 626q-12 -4 -18 -1t-9 10t-3 15.5t1 16.5q1 7 3.5 16t6.5 17t9.5 13.5t14.5 7.5q46 8 89.5 12t78.5 6q40 3 77 3q8 0 16 -0.5t16 -0.5q9 2 14.5 1.5t9.5 -1.5q29 -1 60 -3l58.5 -4.5t64.5 -6.5q3 -8 1 -20l-2 -12t-5 -11q-3 -5 -7.5 -9.5t-10.5 -7.5q-34 1 -65.5 1.5
t-55.5 0.5h-54l-32 -113.5l-38.5 -142l-37 -148t-27.5 -132.5l-20 -112l-8.5 -48t-8 -49l-6.5 -46t-5 -40q-16 -8 -30 -12.5t-25 -6.5q-13 -3 -24 -3q-24 0 -29.5 5.5t-1.5 21.5q3 14 18 76l15.5 65.5l22.5 96l31 132l41 173.5l67 278q-30 -4 -59 -9t-54.5 -10.5t-46 -10.5z
" />
    <glyph glyph-name="U" unicode="U" horiz-adv-x="588" 
d="M10 -9q1 65 18 164q14 85 45 217t89 318q5 10 15.5 17t21.5 12q12 5 27 8q14 3 27 5q11 2 23 2t20 -2q-35 -88 -60 -159.5t-41 -123.5q-19 -61 -31 -108q-17 -50 -29 -100t-19.5 -94.5t-11 -79.5t-3.5 -55q1 -60 20 -94.5t62 -34.5q36 0 67.5 34t58 83.5t45.5 106.5
t29 102q2 8 4 22q13 62 31 138q15 65 37.5 153l51.5 192q8 8 18 13t18 8q10 4 20 5q10 2 21 2q9 0 21 -1.5t24 -5.5q-20 -54 -39 -112.5l-34 -108.5q-18 -58 -34 -115q-23 -72 -37 -129.5t-22.5 -106t-13 -90l-8.5 -81.5q-3 -32 -1 -60q2 -25 7 -50t18 -42q-5 -7 -14 -10
t-19 -5q-11 -2 -24 -2q-26 0 -38.5 32.5t-13.5 103.5q-8 -16 -25 -40.5t-42.5 -48t-59.5 -40.5t-76 -17t-69.5 14.5t-44 39t-23 57t-6.5 67.5z" />
    <glyph glyph-name="V" unicode="V" horiz-adv-x="516" 
d="M172 -194q-25 1 -44 26t-33 65t-23.5 91t-15.5 103.5t-8 102t-2 87.5q1 60 9.5 123.5t19 119.5t21 99.5t15.5 61.5q7 29 19 39.5t45 12.5h24l20 -2t18 -5q-36 -72 -58 -146t-34 -148t-15 -145.5t-1 -138.5q2 -53 6 -98.5t13 -92.5q9 -46 21 -53t25 9.5t25.5 48t21.5 63.5
l18 60.5l27 87.5l31.5 100l30.5 96.5l24.5 77.5t14.5 44l16.5 44.5l23 60l26 63t25.5 55.5q12 23 27 27t29.5 -4.5t27 -25.5t21.5 -35q-13 -5 -26.5 -24.5t-24.5 -41.5q-13 -26 -25 -56l-21 -58l-27.5 -79l-30 -89l-29.5 -87l-25.5 -73.5t-18.5 -48.5l-23 -55.5l-27.5 -64.5
l-29.5 -65.5t-30 -58.5q-21 -38 -35.5 -55.5t-37.5 -17.5z" />
    <glyph glyph-name="W" unicode="W" horiz-adv-x="837" 
d="M144 -191q-29 0 -53.5 25.5t-40 73t-22 117t0.5 158.5q4 59 16 120.5t27 119t32 108.5t31.5 90.5l24 63.5t11.5 28q3 5 11.5 10.5t20 9.5t25 6.5t25.5 2.5q10 0 19 -1q8 -1 16 -3t14 -6q-11 -7 -21.5 -21.5t-19.5 -30.5q-11 -18 -20 -39q-20 -42 -42 -102t-41.5 -127.5
t-34 -137t-19.5 -130.5q-8 -123 9 -183.5t48 -60.5q15 0 32 19t34.5 49t34.5 67t32 73l19.5 51.5l21 58.5l20.5 59.5l18 53.5q0 30 1 63.5t4.5 68t9.5 68t16 61.5q20 54 47 79.5t47 26.5q14 0 20 -12t5 -32q-2 -26 -9 -62.5t-16.5 -78t-21.5 -84l-23 -81.5
q-18 -103 -22 -186.5t1.5 -143t19 -92t32.5 -32.5q22 0 46.5 30t48.5 79.5t46.5 112.5t41 129.5t30.5 131t16 116.5q3 43 3 85q0 36 -3 77t-11 74q13 11 35 18q11 4 24 7q8 2 17 3q8 1 16 1.5t15 -1.5q6 -14 8.5 -36t3.5 -43q1 -25 -1 -52q-8 -106 -27.5 -208t-47.5 -193.5
t-62.5 -168t-71 -132.5t-73 -87t-69.5 -31q-35 0 -56 29.5t-32 74t-14 95.5t-2 94q-23 -56 -49.5 -108t-55 -92.5t-58 -65t-58.5 -24.5z" />
    <glyph glyph-name="X" unicode="X" horiz-adv-x="593" 
d="M700 681q-8 5 -18.5 3t-19.5 -6q-11 -4 -21 -12q-27 -22 -79.5 -82t-114.5 -153l-54.5 -82.5l-57.5 -85.5l7 -83.5t8 -72t12.5 -69.5t20.5 -76q13 -42 28 -63t43 -21q27 0 51.5 14t43.5 30.5t31 30.5t14 14q4 0 6.5 -8.5t1.5 -16.5q0 -7 -13.5 -28t-37.5 -43.5t-57 -40.5
t-72 -18q-41 0 -67.5 29.5t-43 78t-26 112t-16.5 132.5l-38 -60l-38 -61q-43 -69 -69.5 -116.5t-47.5 -70.5q-16 -17 -29 -22.5t-30 -2.5q-15 3 -27 9q-11 5 -22 13.5t-19 22.5q13 3 25.5 12t22.5 18q11 11 22 24q8 10 32 45l57 85l72 109.5l78 118.5q-5 52 -11 105t-14 102
q-15 -21 -37.5 -40.5t-43.5 -19.5q-23 0 -45 13t-39 35.5t-26.5 53t-6.5 65.5q2 21 12 48.5t27 51.5t41.5 41t55.5 17q30 0 52 -13t38.5 -47.5t29 -95.5t24.5 -157l4 -31l4 -30l61.5 94l41.5 63l52.5 76.5t52.5 66.5t51.5 46.5t49.5 17.5q11 0 21.5 -7.5t19.5 -18
t15.5 -22.5zM183 525q11 0 23 4t20 8q-6 36 -13.5 66t-16.5 51.5t-19 34t-22 12.5q-20 0 -33.5 -21.5t-17.5 -59.5q-2 -19 3 -36.5t15.5 -30.5t26 -20.5t34.5 -7.5z" />
    <glyph glyph-name="Y" unicode="Y" horiz-adv-x="545" 
d="M157 77q-67 0 -97.5 43t-25.5 116q4 45 17 115q11 60 33.5 151t61.5 220q12 8 24.5 12.5t22.5 6.5q11 3 23 4q9 1 19 1q8 0 16 -1.5t13 -5.5q-51 -131 -79.5 -224t-42.5 -153q-17 -70 -21 -115q-3 -55 16.5 -78t58.5 -23q31 0 63 23.5t62 67t55.5 105t43.5 138.5
q8 43 18 86l18 79.5l19 79.5q9 8 19.5 12.5t19.5 7.5q11 4 22 5q10 1 20 0q8 -1 16.5 -3t13.5 -7q-17 -53 -29.5 -96l-21.5 -74l-19 -64q-8 -30 -19 -78l-27 -106l-39 -158l-15 -60t-23.5 -75t-36 -77.5t-53 -69.5t-74.5 -50t-100 -19q-33 1 -59 10q-23 8 -42.5 23.5
t-22.5 44.5q5 11 11 20t12 17q7 9 14 17q7 7 15 13q7 5 15 9t16 4q4 -9 12 -21t20 -22.5t27 -17.5t33 -7q24 0 51 15.5t53.5 53t51.5 101.5t47 161q-13 -23 -33 -50t-47.5 -51t-64 -40t-81.5 -16z" />
    <glyph glyph-name="Z" unicode="Z" horiz-adv-x="466" 
d="M72 167l49 60.5l59.5 73l64 80l61.5 80.5t52 74t37 62q6 13 10 25q4 11 6.5 22.5t0.5 22.5q-29 0 -69 -1.5t-84.5 -6.5t-89 -15t-81.5 -28q-5 4 -6.5 13t0.5 20q1 11 5 26q4 13 9 24l10.5 18t13.5 13q38 5 71 8t59 5q30 2 55 2l68 -2q29 -2 61.5 -3.5t60.5 -6.5
q5 -14 7.5 -29t3.5 -27q1 -14 1 -28q-2 -35 -31 -91t-74 -116l-38 -47.5l-51.5 -63l-60 -73l-63 -77l-61 -76t-52.5 -69.5q-26 -35 -43.5 -68.5t-27.5 -58.5q26 10 80 22.5t128 12.5q39 0 73 -3q29 -2 57.5 -7.5t42.5 -14.5q-2 -10 -10 -24q-7 -12 -22 -29.5t-41 -40.5
q-39 8 -73 12.5t-60 6.5q-30 3 -55 3t-54 -4q-25 -3 -56.5 -8.5t-66.5 -16.5q-10 6 -15.5 21t-8.5 30q-4 18 -6 39q26 59 53.5 106.5t50.5 81.5q26 40 50 71z" />
    <glyph glyph-name="bracketleft" unicode="[" horiz-adv-x="207" 
d="M116 367q-15 -57 -29 -117.5l-25 -111.5t-18 -87.5t-8 -46.5q-4 -21 3.5 -39t35.5 -18h26l-9 -56l-92 -5q-8 0 -17 0.5t-16.5 6.5t-11 18.5t0.5 35.5q3 22 12 66.5l21 102.5l27 124.5l31 133.5q17 72 36 143l35.5 129.5l28.5 98.5t16 52q15 47 47 51q8 1 22 1h29t28 -0.5
t20 -0.5l-16 -71q-13 0 -25.5 -1t-23 -6t-19 -16t-14.5 -31q-23 -77 -40.5 -141.5l-29.5 -112.5z" />
    <glyph glyph-name="backslash" unicode="\" horiz-adv-x="280" 
d="M119 746q1 -8 3.5 -36t7 -70l10 -93t12.5 -104t15 -104t17 -92q9 -47 19 -92q8 -38 18 -80.5t18 -71.5q-11 -8 -21 -11.5t-18 -5.5q-10 -2 -19 -2q-20 0 -26 4.5t-9 18.5q-1 12 -9 63q-3 22 -8 54.5l-12 79.5l-16.5 109.5l-21.5 143.5l-37 245q-3 20 3.5 29.5t32.5 17.5
q20 5 30 3.5t11 -6.5z" />
    <glyph glyph-name="bracketright" unicode="]" horiz-adv-x="222" 
d="M91 368q15 57 29 117l25 111t17.5 87.5l8.5 47.5q4 20 -3.5 38t-35.5 18h-28l10 57l93 4q7 0 16.5 -0.5t17 -6.5t11 -18.5t-0.5 -35.5q-3 -22 -12 -66l-21.5 -102l-27.5 -125l-31 -134q-17 -72 -35.5 -143l-35 -129l-28.5 -98t-16 -52q-15 -47 -47 -52q-9 -1 -23 -1
h-28.5t-27.5 0.5t-20 0.5l15 71q13 0 25.5 1t23.5 6t19.5 16t14.5 32l40 141t30 113z" />
    <glyph glyph-name="asciicircum" unicode="^" horiz-adv-x="294" 
d="M284 729q2 -18 3 -35.5t3 -34.5q5 -53 11 -103q5 -43 11.5 -89t12.5 -79q-8 -8 -17 -12t-17 -6q-9 -3 -18 -2q-19 0 -24 5t-7 20q0 3 -2 29l-5 66t-6 88.5l-6 96.5l-74 -127.5l-93 -156.5q-3 -4 -10 -8q-6 -3 -16 -5.5t-26 -2.5q-14 -2 -19 1.5t-6 7.5t3 11q2 5 5 9
q2 4 4.5 8l4.5 7l165 279q12 21 22 31q6 5 22 9t33.5 5.5t31 -1t14.5 -11.5z" />
    <glyph glyph-name="underscore" unicode="_" horiz-adv-x="450" 
d="M398 57q8 -3 10.5 -10.5t-4.5 -26.5q-6 -18 -13 -23t-14 -7q-3 -1 -27 1t-58.5 4.5t-75 4t-76.5 0.5q-67 -2 -122.5 -4t-100.5 -7q-21 -2 -26 7.5t-3 21.5q3 13 9.5 29t21.5 18q48 5 92 7t79 3q40 1 77 0q46 2 86.5 0t71.5 -6t50 -7.5t23 -4.5z" />
    <glyph glyph-name="grave" unicode="`" 
d="M329 692q6 -3 21.5 -13.5t32.5 -24l32.5 -27t20.5 -22.5q11 -18 2.5 -27.5t-18.5 -15.5l-71.5 38l-46.5 24l-33 17q-9 5 -7 18.5t13 25.5q16 16 28 15t26 -8z" />
    <glyph glyph-name="a" unicode="a" horiz-adv-x="446" 
d="M513 199l-36 -49.5l-45.5 -59t-46 -54t-37.5 -34.5q-10 -6 -23 -10t-26.5 -5t-25.5 1.5t-21 8.5q-9 7 -15 20q-5 11 -9.5 29t-3.5 45q-24 -40 -53 -61.5t-55 -31.5q-30 -11 -60 -13q-14 0 -30 9.5t-27 30t-14 53t8 77.5q14 61 44.5 111t66.5 85.5t71 53.5t58 16
q27 -5 44 -16q14 -10 18.5 -29.5t-16.5 -51.5q14 3 23.5 4t14.5 1q6 0 8 -1q1 -2 1 -8.5t-3 -23.5t-9 -46l-16 -75q-2 -9 -3.5 -16.5l-3 -15l-3.5 -17.5l-5 -25q-1 -9 -0.5 -19.5t3.5 -19.5t9.5 -14.5t18.5 -5.5q10 0 26 12.5t34 32t37.5 43l36.5 45.5l30.5 39l19.5 25
q8 9 16 10.5t12 -4.5t1.5 -18t-14.5 -28zM220 155l12 47t12 52t7.5 41.5t-1.5 15.5q-5 -1 -11 -3q-5 -2 -13 -3t-16 -3q8 16 9.5 26.5t0.5 16.5q-1 7 -4 11q-11 9 -38.5 -14.5t-63.5 -86.5q-15 -26 -24 -55.5t-12.5 -55.5t-1.5 -45.5t8 -25.5q11 -11 25 -10.5t28.5 8
t29 19.5t26 25t19 24t8.5 16z" />
    <glyph glyph-name="b" unicode="b" horiz-adv-x="425" 
d="M229 573q-15 -60 -33.5 -114.5t-38 -102t-39 -86.5l-34.5 -68q-10 -72 0 -116t39 -44q24 0 47 22t41 54t30.5 68.5t15.5 65.5q-19 5 -32 17.5t-13 33.5q0 14 8 26.5t19 21.5t24 14t24 5q17 0 29 -21.5t16 -54.5q40 1 84 12t83 28q11 5 18 3t9.5 -8t-0.5 -13.5t-12 -11.5
q-23 -13 -47.5 -23.5t-48.5 -17.5t-46 -11t-40 -4q-4 -40 -25 -86.5t-51 -86t-66.5 -65.5t-71.5 -26q-11 0 -29 3t-35 21t-29 57.5t-10 112.5q1 49 11 104t24 110t31.5 106.5t33.5 93t29.5 69.5t20.5 36q9 11 21 16.5t23.5 8t21.5 1.5t14 -3q6 -4 3.5 -44t-19.5 -103z" />
    <glyph glyph-name="c" unicode="c" horiz-adv-x="372" 
d="M170 34q31 0 68.5 24.5t73 57.5t65 67.5t44.5 55.5q9 13 17 15.5t12 -2.5t3 -15.5t-9 -23.5q-7 -12 -23.5 -34.5t-39 -49t-51 -54t-59.5 -50t-64 -37t-65 -14.5q-44 0 -73.5 16.5t-47 42.5t-24.5 57.5t-7 62.5t14 77t41.5 88.5t69.5 73t99 30.5q32 0 54.5 -22t21.5 -60
q0 -18 -6 -35.5t-16 -31t-23.5 -21.5t-29.5 -8q-13 0 -19.5 9.5t-8 22t0 24.5t3.5 16q5 7 11 10l14 7q6 3 9.5 9t3.5 13t-4 12t-13 5t-32.5 -14.5t-48 -43t-43.5 -71.5t-20 -100q-1 -33 9 -54t25 -33t33 -17t35 -5z" />
    <glyph glyph-name="d" unicode="d" horiz-adv-x="495" 
d="M318 191l-9.5 -59t-5.5 -45q-1 -25 9 -36t22 -11q14 0 34.5 14t43.5 35t46 46l42.5 47.5t33 39.5t18.5 22q6 6 12.5 7t10.5 -2t4 -11t-8 -20q-12 -19 -31 -44.5t-42 -52.5t-48.5 -53t-51 -46t-49 -32.5t-42.5 -12.5q-14 0 -26.5 8t-22.5 21t-15.5 29t-4.5 32q1 7 3 24
q-42 -47 -84.5 -74.5t-81.5 -27.5q-14 0 -30 7t-28.5 23t-20.5 42t-6 63q3 58 23 110t50.5 90.5t69 61t77.5 22.5q17 0 31 -8.5t24 -22t16.5 -29.5t9.5 -30q7 29 13 57t12 53l21 80l23 85t29 101q10 8 19 12t17 6q9 3 17 3q10 0 18 -2.5t13.5 -13t7.5 -31.5t0 -57
q-2 -44 -15.5 -96t-35.5 -107.5t-50.5 -111t-61.5 -105.5zM259 178q4 19 7.5 38t8.5 39q-2 -1 -3.5 -2t-3.5 -2q-11 -5 -15 0.5t-4 17.5q0 6 -1 21.5t-5.5 32t-13.5 29t-25 12.5q-23 0 -47 -23.5t-45 -57t-35 -71.5t-16 -68q-2 -48 12 -69t38 -21q18 0 39.5 14t42 34t38 41z
" />
    <glyph glyph-name="e" unicode="e" horiz-adv-x="381" 
d="M453 208q-30 -44 -68 -85.5t-80.5 -74t-87 -52.5t-86.5 -20q-22 0 -47.5 10.5t-46.5 32.5t-33.5 57t-7.5 85q4 41 25.5 86.5t53 83.5t71 63t79.5 25q38 0 55 -19t15 -47q-3 -31 -17.5 -57t-34.5 -47t-42.5 -38l-42.5 -31l-42 -28.5l-35 -24.5q1 -25 9 -42t20 -27.5
t27.5 -15t31.5 -4.5q34 0 71 21.5t72.5 52t66 63.5t50.5 57q7 8 14.5 9.5t12 -2t4.5 -12t-7 -19.5zM197 362q-12 0 -28.5 -12t-32.5 -34.5t-30 -55t-21 -74.5q12 9 26 18.5t28 20.5q43 33 60 58t19 43q2 19 -4 27.5t-17 8.5z" />
    <glyph glyph-name="f" unicode="f" horiz-adv-x="333" 
d="M20 104q-11 11 -15.5 21.5t-6.5 20.5q-2 11 0 22q4 14 12 26q7 11 19 22.5t32 21.5q13 32 23.5 67.5l18.5 64.5q9 34 16 68q25 85 26 138.5t-2 70.5l-2 14q-2 6 -3.5 13.5t-3.5 14.5q11 6 19.5 10t14.5 6q7 3 13 4q23 5 43.5 5.5t22.5 -7.5q1 -5 2.5 -18t1.5 -32
t-3 -42.5t-11 -49.5l-19 -64l-29 -93.5l-47 -149.5q30 10 66 19t73.5 15t75 9t69.5 1q6 0 8.5 -5.5t0 -11.5t-11 -11.5t-24.5 -6.5l-44 -4.5t-49.5 -7t-50.5 -11t-47 -15.5l-34 -12q-14 -5 -29.5 -11.5t-25.5 -11.5l-23 -73q58 -41 89.5 -84t45.5 -79q17 -42 19 -82
q0 -44 -13 -88.5t-34.5 -85t-50 -75.5t-60 -60t-64 -38t-61.5 -10q-21 2 -35 13.5t-21 29t-8 39t4 42.5q4 21 17 78q11 48 34 139.5zM79 57q-14 -50 -24.5 -92t-17.5 -74q-9 -37 -14 -67l-18.5 -75t-15 -66.5t-4.5 -47.5t13 -18q29 -2 60.5 22.5t57.5 62t43 81t17 80.5
q0 41 -13 81q-9 21 -21 41q-11 17 -26.5 36.5t-36.5 35.5z" />
    <glyph glyph-name="g" unicode="g" horiz-adv-x="471" 
d="M264 -143l-12.5 -60t-17 -76t-22 -79.5t-27.5 -71t-33 -51.5t-40 -20q-33 0 -56.5 19.5t-39.5 49t-23.5 63.5t-7.5 63q0 40 7 66.5t24.5 50.5t47.5 51l77 67l44 38l40 33l9.5 37.5t7.5 31.5q-26 -35 -62.5 -59t-83.5 -24q-43 0 -69.5 38.5t-26.5 113.5q0 37 14 85t40 90
t64 71t85 29q22 0 38 -11t27 -27.5t17 -35t9 -34.5q2 6 3 12.5t3 11.5q10 34 22.5 46.5t37.5 12.5q14 0 23.5 -5t9.5 -9q-5 -11 -8 -17l-6 -12.5t-6 -16.5t-8 -29q-2 -7 -7.5 -32.5t-14 -60.5l-18 -77l-18.5 -82q28 16 58 39t57 47t48 45.5t31 35.5q8 12 18 17t17.5 3.5
t9 -9t-6.5 -20.5q-23 -37 -56 -71.5t-67.5 -64t-67 -52t-55.5 -36.5q-10 -45 -17 -73t-12 -51zM138 54q21 0 39.5 11t33.5 25.5t25 29.5t15 24q4 9 9.5 24t8.5 29t2.5 25t-7.5 12q-6 1 -9.5 8t-5.5 16t-2.5 18t-1.5 16q-5 35 -17 51t-27 16q-25 0 -47.5 -20t-40 -51.5
t-27.5 -69t-10 -71.5q0 -42 12 -67.5t50 -25.5zM92 -410q20 0 32.5 29.5t26.5 80.5l8.5 34.5l13 51.5l15.5 62.5t17 67.5l-16.5 -14.5t-17.5 -17.5l-42.5 -40.5t-36.5 -41t-25.5 -46.5t-9.5 -58t2.5 -54t7 -33t11 -16.5t14.5 -4.5z" />
    <glyph glyph-name="h" unicode="h" horiz-adv-x="477" 
d="M516 220q7 8 14.5 8.5t12 -4t4 -13.5t-8.5 -20q-19 -26 -44 -53.5t-53.5 -53.5t-57.5 -49t-56 -38q-30 -17 -50.5 -17t-40.5 26q-18 23 -17.5 49.5t11.5 66.5q7 25 19.5 59.5t20 66.5t4.5 54.5t-26 22.5q-16 0 -34.5 -11t-37 -28.5t-35.5 -39.5t-30 -43l-16 -77
l-14.5 -69.5t-14.5 -66.5q-6 -5 -13 -7t-13 -2q-7 0 -14 1q-8 2 -15 6q-6 4 -12 10.5t-9 17.5l71 297l40 171l22 97q3 19 5 37q2 16 2 33t-3 31q8 5 17.5 8t18.5 5q11 3 22 5t20 2q8 0 15 -1.5t9 -6.5q6 -5 5.5 -20t-2.5 -31l-9 -41q-21 -81 -47 -157.5t-48 -163.5
q13 20 31 41t39.5 38.5t45.5 29t51 11.5q14 0 26.5 -4.5t22 -15t14.5 -28t4 -43.5q0 -16 -3.5 -33t-9.5 -37.5t-15.5 -45.5l-22.5 -58q-9 -23 -14 -39t2 -28q9 -16 35.5 -7.5t79.5 51.5q12 10 27 25t29 30.5l26 29.5t20 22z" />
    <glyph glyph-name="i" unicode="i" horiz-adv-x="281" 
d="M220 589q-3 -11 -11.5 -21.5t-19 -17t-21.5 -8.5t-18 4q-21 16 -22 34.5t9 35t25 28t26 13.5t18.5 -4.5t11.5 -17t4.5 -23.5t-2.5 -23zM82 376q5 6 19 10t29 6.5t27.5 3t14.5 -0.5q1 -1 -5 -21t-15 -47l-19 -55.5t-15 -46.5t-12 -40.5t-12.5 -44t-7.5 -40.5t3 -29
q5 -12 11 -16.5t13 -4.5q20 0 50.5 22t62 52.5t58.5 62t40 50.5q8 10 16.5 13t14 -1t6 -13t-6.5 -21q-16 -28 -47 -66.5t-66 -74t-68.5 -60.5t-54.5 -26q-17 -1 -33.5 5.5t-30 18t-22.5 27t-10 32.5q-3 25 0 68.5t11 89t20.5 86.5t28.5 61z" />
    <glyph glyph-name="j" unicode="j" horiz-adv-x="274" 
d="M238 618q0 -9 -6.5 -21.5t-17 -23t-23 -18t-25.5 -7.5q-11 0 -20 11t-8 30q0 13 7.5 27.5t19 26.5t25 19.5t25.5 7.5q17 0 20.5 -16t2.5 -36zM-112 -454q-27 0 -47 15t-32.5 38t-18.5 50t-5 51q1 21 15.5 54t40.5 70.5t63 76t82 68.5l12.5 63.5l12.5 63t12.5 58
t12.5 48.5l15 57l16 57.5l19 63.5q10 5 19 7t16 3q8 1 15 0t14 -4q13 -5 23 -18l-28.5 -92l-19.5 -63q-9 -29 -14 -49q-9 -28 -16 -63.5t-16 -76.5q42 26 84.5 61t78 68.5t60 59t30.5 32.5q7 8 14 8.5t11.5 -4.5t4 -14.5t-9.5 -21.5q-14 -20 -42 -50.5t-64 -64t-77.5 -67
t-82.5 -57.5q-9 -5 -20 -13l-27 -116t-29 -106l-27 -84.5t-25 -60.5t-29.5 -36t-40.5 -12zM-148 -328q-2 -35 5 -52.5t19 -17.5q8 0 17.5 17t18 43t17 56.5t15 57.5t10.5 46t5 22q2 8 4 17t4 20q-23 -24 -43.5 -49.5t-36 -52.5t-25 -54t-10.5 -53z" />
    <glyph glyph-name="k" unicode="k" horiz-adv-x="451" 
d="M513 199q-23 -38 -52.5 -78.5t-62.5 -74t-68 -55.5t-70 -22t-50.5 23.5t-14.5 52.5q0 13 2.5 23t5.5 18t6.5 16.5t6.5 19.5q4 13 0.5 23.5t-8.5 18.5q-9 -10 -20.5 -17.5t-28.5 -7.5q-12 0 -22 11.5t-10 28.5q0 14 6.5 23t15 14t17.5 7t15 2q3 0 12.5 -1t20.5 -3
q36 29 51.5 52.5t2.5 42.5q-8 13 -20 13.5t-25 -6t-25.5 -16.5t-22.5 -19q-20 -20 -44.5 -47.5l-40.5 -45.5l-14 -63l-13.5 -65.5l-15.5 -75.5q-6 -3 -12.5 -4.5t-11.5 -2.5q-6 -1 -12 -1q-8 0 -15 0.5t-11.5 5t-5 14.5t5.5 28q8 26 20 69.5t25 95.5l26.5 108.5l25.5 108
t20.5 93t12.5 65.5l6 50q2 20 2.5 39.5t-2.5 29.5q5 5 14 9t20 6q11 3 26 5q17 2 28.5 1t16.5 -10q6 -10 2.5 -33.5t-14.5 -65.5q-14 -54 -28.5 -98.5l-28 -83.5l-26 -75.5t-22.5 -74.5q20 29 50 61.5t68 53.5q40 21 66 21q32 0 46 -21.5t13 -50.5q-1 -23 -11.5 -42.5
t-25.5 -36t-32 -28.5l-29 -20q14 -8 24.5 -21.5t9.5 -33.5q-1 -27 -10.5 -47.5t-9.5 -37.5q1 -13 5.5 -19t19.5 -6q27 0 56.5 23t55.5 53t48 59.5t34 43.5q17 18 28.5 9.5t-2.5 -31.5z" />
    <glyph glyph-name="l" unicode="l" horiz-adv-x="224" 
d="M-15 16l70.5 297l40.5 171l22 97q3 19 5 37q2 16 2 33t-3 31q8 5 17.5 8t18.5 5q11 3 22 5t20 2q8 0 15 -1.5t9 -6.5q6 -5 5.5 -20t-2.5 -31l-9 -41l-33 -124l-48.5 -188l-76.5 -300q-5 -5 -12 -7t-13 -2q-7 0 -15 1q-7 2 -14 6q-6 4 -12 10.5t-9 17.5z" />
    <glyph glyph-name="m" unicode="m" horiz-adv-x="735" 
d="M466 46q0 21 4.5 48t11.5 55.5l14 55.5t12 48q6 26 -1 40t-24 14q-8 0 -31.5 -14t-51 -48.5t-54 -93t-41.5 -148.5q-19 -10 -36 -13q-9 -2 -16 -3q-20 -1 -26 6.5t2 36.5q4 14 14.5 45t20.5 67.5t17.5 73t7.5 63.5q0 19 -6.5 26t-18.5 7q-9 0 -30 -10t-47 -39
t-51.5 -80.5t-43.5 -133.5v2l-4 -16q-2 -7 -3 -15t-3 -15l-50 -22q-5 -2 -12.5 -3t-14 2.5t-9.5 14.5t2 33l63 261q3 13 5 25q2 11 2.5 21.5t-1.5 17.5q17 8 30 12t21 6q10 3 17 3q32 0 21 -55l-12 -47q19 24 40.5 45.5t43.5 38.5t44.5 27t44.5 10q17 0 28.5 -10t18 -26.5
t7.5 -39t-2 -46.5q16 21 35.5 42.5t41 38.5t44.5 28t46 11q27 0 41.5 -16t20 -41t3 -54t-8.5 -56l-34 -135q-11 -50 21 -50q25 0 55 24t58.5 57t53.5 68t42 56q6 7 12.5 8t11 -2.5t5 -11.5t-5.5 -20q-20 -35 -49 -77.5t-63.5 -79.5t-73.5 -62t-81 -25q-14 0 -27.5 3t-25 11
t-18.5 21.5t-7 34.5z" />
    <glyph glyph-name="n" unicode="n" horiz-adv-x="473" 
d="M297 -25q-23 0 -39.5 8.5t-26.5 22.5t-13 32.5t2 39.5q3 14 10 37.5l14.5 51t14 55t8.5 50t-2 37t-17 14.5q-16 0 -33 -10.5t-34.5 -28.5t-35 -41.5l-34.5 -48.5q-9 -34 -15 -59.5l-10.5 -46t-8.5 -36t-7 -29.5q-3 -10 -18 -19.5t-32 -15.5t-29.5 -6t-10.5 9q1 6 6.5 27
l13 49.5l15.5 60.5l15 61l11 51q5 24 12.5 56t17.5 70q7 6 14.5 9.5t15.5 5.5q8 3 17 4q8 0 16 -1q7 -1 14.5 -3.5t13.5 -7.5q-3 -7 -7 -19.5t-8 -26.5q-4 -16 -10 -33q13 18 29.5 36.5t36 33.5t41.5 24.5t45 9.5q19 0 34 -11t23.5 -30.5t10 -46.5t-7.5 -59l-11 -44
q-5 -21 -12.5 -49.5t-18.5 -62.5q-6 -22 -4.5 -38t19.5 -16t45.5 22t55.5 53t53 63.5t38 52.5q9 13 17 17t12.5 1t4.5 -13.5t-8 -26.5q-7 -14 -21.5 -37t-34.5 -49t-43 -52.5t-48 -48t-49.5 -35t-46.5 -13.5z" />
    <glyph glyph-name="o" unicode="o" horiz-adv-x="403" 
d="M296 159q-10 -38 -27 -71t-40.5 -57t-53 -37.5t-64.5 -13.5q-41 0 -64.5 17.5t-35 43.5t-14 57t-2.5 58q0 19 4.5 42t12.5 47t20.5 48t29.5 44q6 17 18.5 30t29 21.5t35.5 13t37 4.5q3 0 5.5 -1t5.5 -2q13 -1 32.5 -10t38 -27t31.5 -45.5t13 -66.5q0 -8 -1 -19.5
t-2 -19.5q23 9 48 22t48.5 27.5t43.5 29.5t32 27q10 9 17 10t10 -4t1 -14t-11 -20q-5 -6 -25.5 -24t-48.5 -39t-61 -41t-63 -30zM127 311q-3 -9 -3 -19q0 -16 2 -33.5t10 -31.5t25.5 -23.5t48.5 -9.5q5 0 10 0.5t10 1.5l5.5 23.5t2.5 18.5q2 19 0 39t-7.5 36.5t-14 27
t-20.5 10.5q-19 0 -36.5 -10.5t-32.5 -29.5zM63 135q0 -18 2 -35.5t8 -31t16 -22t26 -8.5q18 0 33 8.5t27 22t21.5 31t16.5 36.5q-7 -1 -13.5 -1.5t-14.5 -0.5q-38 0 -65.5 22.5t-42.5 57.5q-6 -21 -10 -41t-4 -38z" />
    <glyph glyph-name="p" unicode="p" horiz-adv-x="462" 
d="M-72 -427q-7 3 -14 9q-6 5 -12 12.5t-10 18.5l47.5 186l33.5 132l26 104l20 80l17.5 75l17.5 75q10 39 12 62.5t-15 40.5q12 10 24.5 15.5t22.5 7.5q11 3 22 2q27 -2 33.5 -17t1.5 -48q-1 -5 -1.5 -8.5t-0.5 -7.5q14 16 31 31t34.5 27t36 19.5t35.5 7.5q23 0 37.5 -11.5
t22.5 -30.5t10 -42.5t1 -46.5q-1 -25 -8.5 -53t-20.5 -57t-30 -57t-36 -52q4 -1 5 -1.5t1 -1t1.5 -1t6.5 -0.5q23 0 47 12t47 30.5t44.5 40.5t39 42.5t29.5 37t18 23.5q8 10 15 13.5t11 0.5t4 -11.5t-6 -21.5q-4 -9 -17 -29t-32 -45t-43.5 -52t-51.5 -49t-55.5 -36.5
t-55.5 -14.5q-13 0 -21 1t-13.5 3.5l-10.5 5t-12 5.5q-18 -14 -37 -21.5t-37 -7.5q-17 0 -29.5 5.5t-20.5 15t-13 21t-8 22.5q-1 -4 -1.5 -7t-1.5 -8q-12 -48 -25 -111l-26.5 -131.5t-32.5 -176.5q-6 -27 -21.5 -31t-35.5 4zM111 193q-5 -17 -10.5 -39.5l-12.5 -53.5
q8 6 18 9t20 3q11 0 28 -11.5t41 -24.5q15 18 31.5 40.5t30 46.5t23 49t10.5 48q2 30 -7 47t-30 17q-31 0 -67.5 -36.5t-74.5 -94.5z" />
    <glyph glyph-name="q" unicode="q" horiz-adv-x="474" 
d="M244 53q-11 -15 -24 -30t-28 -27t-32 -19.5t-36 -7.5q-47 0 -73 19t-38.5 45t-15 53.5t-2.5 44.5q0 46 18 93.5t48 86.5t68.5 63.5t78.5 24.5q25 0 42 -10.5t28 -25.5t16.5 -32t7.5 -30l4 25q2 11 4 24l4 25q6 5 13.5 8t15.5 5q9 2 18 3q9 0 17 -1q16 -2 22 -11
q-28 -92 -40 -138q-7 -26 -11 -45q-4 -14 -11.5 -43l-17.5 -67l-21 -81.5l-21 -85.5l47.5 47l51.5 52l51.5 55.5t47.5 56.5q13 16 22.5 20t13.5 -0.5t2.5 -15t-10.5 -22.5l-35 -46.5l-39.5 -49l-41.5 -48.5l-40 -44l-44 -42.5t-47 -52.5q-4 -19 -6.5 -34l-4.5 -27
q-5 -35 -6.5 -59.5t-1.5 -43t1 -34t1 -32.5q1 -36 -2.5 -50t-23.5 -14q-10 0 -26 9t-31 25t-25.5 39t-10.5 52q0 38 15 74.5t40 71.5l15.5 56l17.5 63.5l18 65.5zM81 104q0 -29 7.5 -45t18 -23.5t21.5 -8.5t18 -1q21 0 41 17.5t36.5 43.5t29 56.5t18.5 56.5l5.5 27t4.5 20
q-19 -2 -26 8t-8 35q0 10 -2 21.5t-7 21t-13 15.5t-20 6q-26 0 -48.5 -24t-39.5 -61t-26.5 -81t-9.5 -84z" />
    <glyph glyph-name="r" unicode="r" horiz-adv-x="416" 
d="M-38 5q-7 -11 -15.5 -14.5t-15 -1t-8.5 10.5t4 20l13.5 27l25 50.5l31.5 64l32.5 65.5l28.5 55.5l19 35.5q-11 10 -15 14.5t-6 19.5q-2 13 6 34t21 40.5t29 33.5t31 14q28 0 39.5 -18t13.5 -37q2 -13 -2 -33t-15 -36q3 -2 8 -4.5t16 -2.5q16 0 22.5 2t20.5 2
q17 0 28 -8.5t18 -21t10.5 -27t4.5 -26.5q3 -25 -13 -52t-39 -59q-14 -20 -28 -45t-12 -45q2 -13 7 -21t28 -8q17 0 37.5 12.5t42 32t42.5 43t39 46t30.5 40.5t18.5 26q5 8 13 11t14 0t7.5 -12t-7.5 -24q-6 -10 -20.5 -32t-35 -49t-45.5 -55.5t-52.5 -52t-55 -38.5
t-52.5 -15q-26 0 -43 10t-27.5 24.5t-15 32t-3.5 32.5q1 12 6.5 25.5t13 28t16 29t15.5 28.5q17 29 27.5 49.5t10.5 34.5q0 9 -4 16t-13 7q-6 0 -8.5 -0.5t-5 -0.5t-7 -0.5t-13.5 -0.5q-13 0 -22 4t-17 6l-18 -30l-32.5 -54l-39 -65l-38.5 -63.5l-30.5 -50t-15.5 -24.5z" />
    <glyph glyph-name="s" unicode="s" horiz-adv-x="360" 
d="M141 34q6 -4 15.5 -4t19 4t18 11t12.5 18t0 31.5t-12.5 44t-18.5 47.5t-17 44q-6 15 -10 28l-7.5 21.5t-5.5 14.5q-5 -8 -17.5 -26l-27 -37.5l-27.5 -36l-18 -22.5q-8 -9 -15.5 -10.5t-12.5 3t-5.5 13t7.5 20.5q6 8 18 25.5l24 36l22 33t11 17.5q2 8 -5.5 21t-2.5 30
q4 14 18 32.5t33 33.5t39 22.5t36 -0.5q13 -8 21 -17.5t6 -19.5q-2 -5 -6 -13t-12 -19.5t-23 -29.5q3 -23 8.5 -42t10.5 -33q6 -17 13 -31l19 -37t18 -37.5t13 -34.5t3 -27q-3 -17 -17.5 -41t-36 -46.5t-49 -38.5t-57.5 -16q-21 0 -40.5 13t-33 30.5t-20 34.5t-1.5 26
q6 12 11 19t15 16q4 3 10 7q5 3 14 6l21 7q10 -31 18 -48.5t13 -27.5q6 -11 11 -15z" />
    <glyph glyph-name="t" unicode="t" horiz-adv-x="309" 
d="M369 253q4 6 10.5 7.5t10.5 -1.5t4.5 -10t-5.5 -19q-20 -38 -52.5 -82t-68.5 -82.5t-70 -63.5t-57 -25q-33 0 -55 13t-34.5 32t-17.5 41.5t-3 41.5q1 16 7 57.5t16 96l22.5 117t26.5 120.5l-34 -4t-31 -2q-32 0 -60.5 7.5t-42.5 14.5q-8 4 -7 11.5t6 15t12.5 13t13.5 5.5
q19 -2 41 -3.5t48 -0.5q19 1 36.5 3t34.5 5q13 48 25.5 83.5t22.5 49.5q3 5 13.5 8.5t22.5 5t23 0t16 -7.5q5 -8 4 -41t-11 -84q42 0 74.5 -4.5t55.5 -10t37 -11t21 -7.5t7.5 -10t-3 -16.5t-11.5 -14.5t-18 -4q-10 1 -22.5 4t-30 5t-41.5 4t-56 2q-6 0 -13.5 -0.5
t-15.5 -0.5q-4 -16 -7.5 -31.5t-9.5 -32.5q-13 -40 -30 -87l-36 -94l-47 -113q-6 -43 1.5 -65.5t18.5 -32.5q13 -11 32 -12q15 -2 36.5 10.5t44.5 33.5t46.5 46t43.5 49l35 43.5z" />
    <glyph glyph-name="u" unicode="u" horiz-adv-x="480" 
d="M124 -16q-38 0 -62 12t-37.5 29.5t-19 38t-5.5 37.5q0 30 5 63.5t12 62t12.5 48.5t7.5 25q9 29 23.5 50.5t40.5 29.5l21 4q9 1 18.5 1t17.5 -3q-27 -69 -42.5 -115t-23.5 -75q-9 -33 -11 -53q-5 -45 8 -68t53 -23q26 0 50 19.5t44 50.5q-3 16 -3 33q0 32 5.5 62.5t13 57
t16 47.5t14.5 33q11 24 20 29.5t29 6.5q8 1 13.5 0.5t9.5 -1.5q12 -3 12 -12q0 -16 -2 -48t-12 -66q-7 -28 -13.5 -47.5t-12.5 -33t-12 -22l-11 -15.5q2 -30 5 -48t7.5 -27.5t11 -13t14.5 -3.5q14 0 33 13.5t39.5 34t41 45l37.5 46.5l29 38.5l15 20.5q7 9 13.5 11t10.5 -1.5
t4.5 -11t-4.5 -16.5q-20 -38 -49.5 -80.5t-63 -78.5t-67.5 -60t-64 -24q-27 0 -42.5 18.5t-26.5 53.5q-23 -36 -54 -55.5t-69 -19.5z" />
    <glyph glyph-name="v" unicode="v" horiz-adv-x="438" 
d="M293 178q-26 -38 -53.5 -74t-53 -64.5t-47 -46t-34.5 -17.5q-31 0 -50.5 29.5t-30 73t-13 93t0.5 88.5q4 39 9 62.5t12.5 36.5t18 19t26.5 10q7 2 16 3t16.5 -0.5t11.5 -6.5t1 -15q-2 -9 -6.5 -26.5t-9.5 -39.5t-9.5 -46t-6.5 -46q-3 -38 0 -66.5t9 -48t13 -29.5t11 -10
q5 0 18.5 13.5t31 35.5t37 51t36.5 60q-6 16 -5 38q3 34 15 61.5t27.5 46.5t32 29.5t29.5 10.5q26 0 32.5 -13.5t4.5 -27.5q-2 -21 -18.5 -57.5t-42.5 -79.5q5 -2 11 -4t14 -2q34 0 61.5 8t48 19t35 23.5l23.5 20.5q6 6 12 6t10 -3t4 -9t-6 -13q-36 -44 -87.5 -71
t-120.5 -27q-6 0 -15 1t-19 4z" />
    <glyph glyph-name="w" unicode="w" horiz-adv-x="662" 
d="M521 173q-14 -36 -32 -70t-40 -61t-47 -43t-54 -16q-47 0 -71 31.5t-33 77.5q-14 -21 -30 -42t-34 -37t-37 -26t-38 -10q-26 0 -44 11t-29.5 30.5t-16.5 45t-5 54.5v12q0 37 6 76t13.5 72t15.5 57.5t12 32.5q7 10 30.5 19.5t46.5 7.5q11 -1 11.5 -9t-2.5 -20
q-4 -17 -14 -51t-20.5 -74t-18.5 -79t-8 -65q0 -32 10 -46t31 -14q25 0 55.5 28t59.5 95q-1 6 -1 12v13q0 45 3.5 86t14 72t29 49t48.5 18q12 0 20 -7t8 -20q0 -32 -22.5 -90.5t-53.5 -128.5q-3 -4 -4 -8q3 -19 7.5 -40t12.5 -38.5t19 -29t26 -11.5q22 0 40.5 21t33 51
t25.5 63.5t17 59.5q-3 11 -5 21.5t-2 24.5q0 31 9 53t23.5 36.5t31 21.5t30.5 7q25 0 25 -22q0 -16 -8 -55.5t-23 -89.5q18 -8 46 -8q26 0 48 6.5t40 16.5t33 22l29 23q11 8 18 1t-2 -22q-8 -13 -27.5 -30t-47 -32.5t-61 -26t-70.5 -10.5q-6 0 -13 1t-14 3z" />
    <glyph glyph-name="x" unicode="x" horiz-adv-x="409" 
d="M437 132q-42 -53 -74.5 -83.5t-57.5 -45.5t-44 -19t-34 -4q-19 0 -32 9t-22 22t-14 27t-8 24q-4 11 -8.5 25l-9.5 31l-42 -45l-43 -45.5l-49 -51.5q-9 -2 -16 0t-12 4q-6 3 -10 7q-3 3 -6 7q-2 3 -4.5 7.5t-1.5 9.5l57.5 65.5l51.5 58.5l50 58q-14 38 -25 71l-16 47
q-10 29 -17.5 48t-25.5 27q12 11 23.5 17.5t20.5 9.5q11 4 19 4q23 0 40.5 -40.5t35.5 -111.5q0 -3 2 -7l40.5 47l34 39l23.5 27t11 12q20 23 36 26t29 -7q6 -4 13 -8q13 -8 31 -15l-37.5 -36.5l-38.5 -39.5l-42 -44l-35.5 -37l-43.5 -48q7 -25 15 -47t16.5 -39t17.5 -27
t19 -10q16 0 36 8.5t42 23.5t44.5 35t44.5 42q8 8 15.5 9t10.5 -3t1.5 -13t-11.5 -21z" />
    <glyph glyph-name="y" unicode="y" horiz-adv-x="416" 
d="M263 368q13 10 25.5 15.5t22.5 7.5q11 3 22 2q27 -2 33.5 -17t1.5 -48q-3 -17 -12 -43l-21 -63.5t-25.5 -85.5t-25.5 -108q-12 -49 -26 -113l-28.5 -135t-35.5 -181q-5 -25 -21.5 -29t-34.5 4q-7 4 -13 9l-11 11.5t-10 17.5l40.5 153l31.5 120l28 106l9.5 41.5t9.5 40.5
q-13 -21 -28 -40t-33 -33t-38.5 -21.5t-42.5 -4.5q-54 7 -76.5 40t-19.5 86q1 21 6 46t11 48t11.5 41.5t8.5 26.5q12 38 17.5 65t-8.5 45q14 9 26.5 12.5t22.5 5.5q11 1 22 0q27 -4 31.5 -20t-3.5 -48q-4 -17 -13 -43.5l-19 -54.5l-18 -51.5t-9 -33.5q-9 -45 -1 -69.5
t35 -24.5q13 0 29 11.5t32.5 30.5t32.5 43.5t29.5 49.5t24 49t15.5 43q7 37 9 58t-14 38z" />
    <glyph glyph-name="z" unicode="z" horiz-adv-x="459" 
d="M520 161q-7 -10 -22.5 -29t-37 -41t-49 -45.5t-58.5 -42.5q-4 -23 -15 -65.5t-29 -92.5t-42 -101.5t-53.5 -94t-64.5 -69t-74 -26.5t-61 13t-32.5 33.5t-12.5 45t-1 47.5q1 30 18 69.5t47.5 80t73.5 77t96 61.5q26 11 48 21.5t41 20.5q8 33 1.5 44t-18.5 11
q-18 0 -42.5 -16t-60.5 -50q-10 -1 -17.5 2.5t-12.5 8.5q-6 5 -10 12q-11 17 -9.5 34t15.5 27q14 11 41.5 35.5t53.5 62.5l19.5 27.5t23 36t22 40.5t16.5 40q-20 3 -58 -1l-43 -9q-20 -5 -45.5 -13t-53.5 -22q-4 2 -6 8t-3 14q-1 9 -1 20q0 14 4.5 23.5t11.5 15.5t15 9.5
t14 5.5q7 2 27.5 5.5t46.5 6.5t54 4.5t51 0.5q47 -3 59.5 -12.5t6.5 -29.5q-7 -20 -27 -67.5t-61 -109.5l-31 -43t-27 -35q17 8 34 12.5t34 4.5q23 0 30.5 -22t8.5 -48q40 25 71.5 53t67.5 72q9 11 16.5 13t11.5 -2.5t4 -13t-6 -17.5zM270 -57q2 8 4.5 14.5t4.5 13.5
q-52 -29 -95 -61.5t-74.5 -68.5t-49.5 -75t-20 -79q-1 -24 7.5 -41t30.5 -17q24 0 51.5 34.5t54 84t49.5 103t37 92.5z" />
    <glyph glyph-name="braceleft" unicode="{" horiz-adv-x="249" 
d="M111 -121q-18 0 -41.5 11t-44.5 30.5t-34.5 47t-10.5 60.5q3 43 18 75.5t32 60.5t31.5 55.5t17.5 60.5q1 19 -4 36q-5 14 -15.5 26.5t-31.5 15.5q-1 6 -0.5 11t1.5 10l2 10q3 11 7 20t6 11q30 -5 47.5 10.5t27.5 37.5q11 25 15 59q3 34 0.5 54t-4.5 38t-1.5 39t8.5 56
q9 38 33.5 65.5t55 44.5t62 23.5t53.5 2.5l-36 -100q-18 1 -35.5 -4.5t-32 -17t-24.5 -27.5t-13 -36q-3 -18 -2 -33.5t2.5 -30.5l3 -31t-0.5 -36q-4 -58 -30 -99t-72 -57q18 -14 30 -41t10 -53q-3 -44 -16 -75t-27.5 -54.5l-27 -42.5t-13.5 -39q-1 -13 1.5 -27t11 -27
t24.5 -24.5t42 -19.5l-25 -96v0z" />
    <glyph glyph-name="bar" unicode="|" horiz-adv-x="260" 
d="M219 749q23 5 32.5 3.5t8.5 -6.5l-10.5 -35.5l-20 -70l-26 -92.5t-28 -104t-25 -104t-18.5 -93l-17 -92q-7 -38 -13.5 -80.5t-9.5 -71.5q-14 -8 -25.5 -11.5t-20.5 -5.5q-11 -2 -19 -2q-20 0 -24.5 4.5t-1.5 18.5l15 63l13 54.5l19 79.5l26 109.5l35 143.5l57 245
q5 20 15 29.5t38 17.5z" />
    <glyph glyph-name="braceright" unicode="}" horiz-adv-x="249" 
d="M128 850q18 0 41.5 -11t44.5 -30.5t34.5 -47t10.5 -60.5q-3 -43 -18 -75.5t-32 -60.5t-31.5 -55t-17.5 -60q-1 -20 4 -37q5 -14 15 -27t32 -15v-11.5t-1 -10.5t-2 -9q-3 -11 -7 -20t-6 -11q-30 5 -48 -10.5t-28 -37.5q-11 -26 -15 -59q-3 -34 -0.5 -54t4.5 -38t1.5 -39
t-8.5 -56q-9 -38 -33.5 -65.5t-54.5 -44.5t-61.5 -23.5t-53.5 -2.5l35 101q18 -1 36 4.5t32.5 16.5t24.5 27t13 37q3 18 2 33t-2.5 30l-3 31t0.5 37q4 57 30 98.5t71 56.5q-9 7 -16.5 18t-13 23.5t-8.5 26t-2 26.5q3 44 16 75t27.5 54.5l26.5 42.5t14 39q1 13 -1.5 27
t-11 27t-24.5 24.5t-42 19.5l26 96v0z" />
    <glyph glyph-name="asciitilde" unicode="~" horiz-adv-x="337" 
d="M357 386q0 -15 -9.5 -30t-26.5 -25.5t-39.5 -15.5t-49.5 -1q-29 4 -50.5 11.5t-39.5 13t-35.5 7t-36.5 -5.5q-12 -4 -23 -9l-21 -11t-19 -13q-14 3 -20 11q-4 4 -7 9q-4 7 -7 15q-2 6 -3.5 13.5t2.5 13.5q15 19 37 28.5t42 13.5q24 4 50 4q33 -2 53.5 -8t37 -12.5
t34.5 -10.5t45 0q9 2 20 7q9 5 20.5 13t23.5 22q10 -6 16 -17t6 -23z" />
    <glyph glyph-name="Adieresis" unicode="&#xc4;" horiz-adv-x="566" 
d="M433 753q35 0 57.5 -19.5t19.5 -70.5q-1 -17 -8 -63.5l-17 -109.5l-22.5 -135.5l-23.5 -141.5h21q10 0 22 1t25 3q-5 -12 -11 -22.5t-12 -18.5q-7 -9 -14 -16q-9 -11 -21 -19.5t-23 -13.5q-7 -49 -11.5 -87.5t-5.5 -63.5q-2 -38 2 -71q3 -29 12 -59t29 -48l-116 -38
q-12 17 -17.5 45.5t-7.5 56.5q-3 33 -1 68t11 91.5l20 123.5q-20 6 -43.5 10t-52.5 4q-26 0 -54.5 -2t-56.5 -5q-12 -44 -24 -93q-13 -53 -23.5 -90.5t-20 -62.5t-19 -40t-20.5 -22q-12 -6 -30 -11q-17 -5 -43 -10t-67 -8q15 18 26 33t22 37t24.5 56.5l34.5 90.5
q9 23 18.5 50.5t20.5 56.5q-36 -5 -61 -9t-30 -6q-8 -1 -13 0q-13 2 -14 13q1 14 9.5 19t25.5 12q8 4 36.5 14.5t69.5 22.5l29.5 83.5l28.5 79.5l27 71.5t24 57.5q17 37 43.5 81.5t61 83.5t76 65t87.5 26zM422 545q11 45 15 74t3 45.5t-6.5 23t-13.5 6.5q-13 0 -32 -10
t-40 -28.5t-41.5 -46t-36.5 -62.5q-23 -52 -52 -127.5t-63 -192.5q20 3 39.5 5t38.5 2q34 0 65 -2.5t57 -5.5l18.5 94.5l18.5 88.5l16.5 77t13.5 59zM525 817q-21 0 -29.5 8t-8.5 22q0 9 6 18t15.5 16t22 11t25.5 4q25 0 34.5 -8.5t9.5 -22.5q0 -11 -7.5 -20t-18.5 -15
t-24 -9.5t-25 -3.5zM442 871q0 -19 -22.5 -37.5t-59.5 -18.5q-19 0 -25 8.5t-6 17.5q0 19 18 38t53 19q16 0 29 -5t13 -22z" />
    <glyph glyph-name="Aring" unicode="&#xc5;" horiz-adv-x="566" 
d="M422 545q11 45 15 74t3 45.5t-6.5 23t-13.5 6.5q-13 0 -32 -10t-40 -28.5t-41.5 -46t-36.5 -62.5q-23 -52 -52 -127.5t-63 -192.5q20 3 39.5 5t38.5 2q34 0 65 -2.5t57 -5.5l18.5 94.5l18.5 88.5l16.5 77t13.5 59zM446 865q36 0 49 -17t13 -35q0 -16 -10.5 -35.5
t-31.5 -29.5q22 -8 34 -27.5t10 -57.5q-1 -17 -8 -63.5l-17 -109.5l-22.5 -135.5l-23.5 -141.5h21q10 0 22 1t25 3q-5 -12 -11 -22.5t-12 -18.5q-7 -9 -14 -16q-9 -11 -21 -19.5t-23 -13.5q-7 -49 -11.5 -87.5t-5.5 -63.5q-2 -38 2 -71q3 -29 12 -59t29 -48l-116 -38
q-12 17 -17.5 45.5t-7.5 56.5q-3 33 -1 68t11 91.5l20 123.5q-20 6 -43.5 10t-52.5 4q-26 0 -54.5 -2t-56.5 -5q-12 -44 -24 -93q-13 -53 -23.5 -90.5t-20 -62.5t-19 -40t-20.5 -22q-12 -6 -30 -11q-17 -5 -43 -10t-67 -8q15 18 26 33t22 37t24.5 56.5l34.5 90.5
q9 23 18.5 50.5t20.5 56.5q-36 -5 -61 -9t-30 -6q-8 -1 -13 0q-13 2 -14 13q1 14 9.5 19t25.5 12q8 4 36.5 14.5t69.5 22.5l29.5 83.5l28.5 79.5l27 71.5t24 57.5q15 33 38.5 73t53 76t65 64t75.5 38q-17 8 -22 21.5t-5 26.5t6 25t16.5 22t24.5 16t29 6zM437 776
q14 0 20.5 11.5t6.5 19.5t-4.5 15t-18.5 7q-11 0 -19 -9t-8 -20q0 -8 4.5 -16t18.5 -8z" />
    <glyph glyph-name="Ccedilla" unicode="&#xc7;" horiz-adv-x="562" 
d="M198 -239q55 2 81 -16t21 -50q-2 -17 -15 -32.5t-34 -28t-48.5 -21.5t-57.5 -12q-13 -2 -19.5 2t-7 10t5.5 11.5t19 8.5q33 8 57 22t27 32q2 17 -17.5 27t-53.5 6q-27 -2 -24 20q1 4 5.5 15.5l9.5 25t10 25t7 15.5q-39 11 -70 38.5t-52.5 67.5t-32.5 90t-9 106
q2 60 15.5 130t38.5 140.5t60.5 136t81.5 115.5t102.5 80.5t122.5 30.5q41 0 69.5 -16.5t46 -43.5t24.5 -61t6 -69q-2 -33 -9.5 -64t-21 -55.5t-33 -39t-44.5 -14.5q-12 1 -23 8q-10 6 -20.5 18t-19.5 35q27 11 42.5 38.5t23.5 57.5q9 34 12 76q2 41 -17 60t-43 19
q-47 0 -99 -49t-96.5 -132.5t-75 -194.5t-35.5 -235q-2 -56 7.5 -95t27 -64t39.5 -36t44 -11q35 0 66 15t56.5 37t44 45.5t28.5 41.5q7 13 15 16t14 -1.5t8 -14t-4 -22.5q-16 -33 -39.5 -66t-52.5 -60t-64 -44.5t-73 -20.5q-3 -8 -9.5 -20.5z" />
    <glyph glyph-name="Eacute" unicode="&#xc9;" horiz-adv-x="536" 
d="M195 -186q-47 0 -87.5 15t-71 42t-48.5 63.5t-19 79.5q-1 56 17.5 100t49 78t69.5 57.5t80 38.5q-22 12 -41.5 29t-34.5 38t-24 44t-9 46q-2 70 28.5 127t78.5 97.5t107.5 62.5t116.5 22q38 0 65 -12.5t44 -31t25.5 -40t9.5 -39.5q1 -33 -8.5 -67t-24 -61.5t-32.5 -45
t-35 -17.5q-13 0 -27 4q-12 3 -28 10t-32 21q26 10 46 28.5t33.5 41.5t20 47.5t6.5 46.5q-1 32 -15 49.5t-45 17.5q-42 0 -84 -20.5t-74.5 -57t-51 -87t-12.5 -109.5q5 -45 27.5 -76t42.5 -48q16 2 30 3.5t26 1.5q17 0 34 -6t17 -17q0 -8 -3.5 -18t-11.5 -19t-19 -15t-26 -6
q-12 0 -29 6t-34 15q-38 -8 -69 -28.5t-52.5 -48.5t-33.5 -61t-11 -64q1 -29 9 -58.5t25 -52.5t44.5 -37.5t66.5 -14.5q29 0 55.5 12.5t49.5 31.5t42 42t33 45t23.5 40l13.5 26q3 6 8.5 9t11 1.5t8.5 -7.5t0 -18q-8 -36 -30 -80.5t-56.5 -83.5t-81 -65.5t-103.5 -26.5z
M473 942q9 7 20 -1t16 -24q7 -21 1 -31.5t-18 -18.5q-6 -5 -22.5 -14t-36 -18.5t-38.5 -17t-29 -8.5q-11 -1 -17 2.5t-9.5 8.5t-4.5 11.5t-1 11.5q78 54 109 77z" />
    <glyph glyph-name="Ntilde" unicode="&#xd1;" horiz-adv-x="554" 
d="M156 472q-5 -18 -12.5 -51.5t-16 -76.5l-18 -90.5t-17 -93.5t-13.5 -86.5t-7 -68.5q-1 -31 0 -61q1 -26 3.5 -54.5t9.5 -50.5q-17 -8 -30 -11.5l-21 -5.5q-10 -2 -17 -2q-8 0 -19 1.5t-20 10.5t-15 28t-4 55q1 24 7.5 59.5t15.5 78t20.5 88l22.5 89l20.5 82.5l16.5 67
l20 84l57 246q7 5 15 9.5t14 7.5q7 4 14 6q32 12 45.5 3t15.5 -36q1 -18 4.5 -52t6.5 -76t5 -86.5t2 -82.5q0 -25 1 -59t3 -72t5 -77.5t7 -75.5t8.5 -66t9.5 -49q2 -8 4.5 -15t4.5 -14q6 24 13.5 57l16 70.5t16.5 77t14 74.5q5 28 11 72t14 95l-21 8q-9 4 -18 10t-15 14
q1 13 2.5 19t9.5 1q6 -3 18.5 -7t29.5 -6q5 28 11.5 56t13.5 54q11 43 25 77.5t32.5 58.5t43.5 37t58 14q31 0 50.5 -25.5t16.5 -88.5q-2 -47 -19.5 -84.5t-42.5 -66t-55 -47t-57 -26.5q-9 -47 -17 -94.5l-15.5 -92t-15 -84.5t-14.5 -71l-15 -65q-7 -30 -17 -69l-21 -82
q-4 -9 -10 -15.5t-12 -10.5q-7 -5 -14 -8q-20 -8 -34 -3t-25 27q-11 23 -19.5 57t-17.5 74q-9 43 -13.5 93.5t-7 103t-3.5 104.5t-4 98q-5 60 -10 107.5t-11 80.5l-9 -45t-11 -51zM492 514q-5 -19 -8 -36q24 14 45 35.5t36 45.5t23.5 48t9.5 44q1 14 -2.5 22.5t-12.5 8.5
q-5 0 -15.5 -5.5t-23.5 -23t-26.5 -50.5t-25.5 -89zM528 882q17 -10 17 -33q0 -12 -7.5 -24t-21 -20.5t-32 -12.5t-40.5 -1q-23 3 -41 9t-33 10.5t-29 6t-30 -4.5l-18 -8l-16.5 -8.5t-15.5 -9.5q-6 1 -10 4t-7 5q-4 3 -5 6q-4 6 -6 12q-2 5 -2.5 11t2.5 11q12 16 29.5 24
t34.5 11q19 4 40 3q27 -1 43.5 -6t30.5 -10.5t28 -8.5t37 0q7 1 16 5q8 4 17 10.5t19 18.5z" />
    <glyph glyph-name="Odieresis" unicode="&#xd6;" 
d="M524 336q-5 -63 -20 -126.5t-37.5 -122.5t-52.5 -110.5t-66.5 -89.5t-78 -60t-86.5 -22q-9 0 -27.5 3.5t-39.5 16t-42.5 36.5t-37.5 64.5t-23 100.5t0 145q12 134 49.5 243.5t86 187.5t100.5 120.5t92 42.5q16 0 26.5 -6.5t16.5 -16.5q7 2 16 3t20 1q29 0 51.5 -30
t37 -84t19 -129.5t-3.5 -166.5zM186 -137q39 0 80 40t76 108.5t60 159.5t34 193q2 27 3 62t0 71t-4.5 71.5t-9.5 62.5t-15 44t-21 17q-13 -1 -26 -8q-11 -6 -25.5 -19.5t-28.5 -37.5q-3 2 -4.5 6t-3.5 8t-3 9q-2 3 -2 7.5t-1 10.5q-20 -22 -47.5 -62.5t-55 -100.5
t-50 -141.5t-31.5 -185.5q-8 -92 -4 -153t15.5 -97t28.5 -50.5t35 -14.5zM463 817q-21 0 -29.5 8t-8.5 22q0 9 6 18t15.5 16t22 11t25.5 4q25 0 34.5 -8.5t9.5 -22.5q0 -11 -7.5 -20t-18.5 -15t-24 -9.5t-25 -3.5zM380 871q0 -19 -22.5 -37.5t-59.5 -18.5q-19 0 -25 8.5
t-6 17.5q0 19 18 38t53 19q16 0 29 -5t13 -22z" />
    <glyph glyph-name="Udieresis" unicode="&#xdc;" horiz-adv-x="588" 
d="M10 -9q1 65 18 164q14 85 45 217t89 318q5 10 15.5 17t21.5 12q12 5 27 8q14 3 27 5q11 2 23 2t20 -2q-35 -88 -60 -159.5t-41 -123.5q-19 -61 -31 -108q-17 -50 -29 -100t-19.5 -94.5t-11 -79.5t-3.5 -55q1 -60 20 -94.5t62 -34.5q36 0 67.5 34t58 83.5t45.5 106.5
t29 102q2 8 4 22q13 62 31 138q15 65 37.5 153l51.5 192q8 8 18 13t18 8q10 4 20 5q10 2 21 2q9 0 21 -1.5t24 -5.5q-20 -54 -39 -112.5l-34 -108.5q-18 -58 -34 -115q-23 -72 -37 -129.5t-22.5 -106t-13 -90l-8.5 -81.5q-3 -32 -1 -60q2 -25 7 -50t18 -42q-5 -7 -14 -10
t-19 -5q-11 -2 -24 -2q-26 0 -38.5 32.5t-13.5 103.5q-8 -16 -25 -40.5t-42.5 -48t-59.5 -40.5t-76 -17t-69.5 14.5t-44 39t-23 57t-6.5 67.5zM484 807q-21 0 -29.5 8t-8.5 22q0 9 6 18t15.5 16t22 11t25.5 4q25 0 34.5 -8.5t9.5 -22.5q0 -11 -7.5 -20t-18.5 -15t-24 -9.5
t-25 -3.5zM401 861q0 -19 -22.5 -37.5t-59.5 -18.5q-19 0 -25 8.5t-6 17.5q0 19 18 38t53 19q16 0 29 -5t13 -22z" />
    <glyph glyph-name="aacute" unicode="&#xe1;" horiz-adv-x="446" 
d="M513 199l-36 -49.5l-45.5 -59t-46 -54t-37.5 -34.5q-10 -6 -23 -10t-26.5 -5t-25.5 1.5t-21 8.5q-9 7 -15 20q-5 11 -9.5 29t-3.5 45q-24 -40 -53 -61.5t-55 -31.5q-30 -11 -60 -13q-14 0 -30 9.5t-27 30t-14 53t8 77.5q14 61 44.5 111t66.5 85.5t71 53.5t58 16
q27 -5 44 -16q14 -10 18.5 -29.5t-16.5 -51.5q14 3 23.5 4t14.5 1q6 0 8 -1q1 -2 1 -8.5t-3 -23.5t-9 -46l-16 -75q-2 -9 -3.5 -16.5l-3 -15l-3.5 -17.5l-5 -25q-1 -9 -0.5 -19.5t3.5 -19.5t9.5 -14.5t18.5 -5.5q10 0 26 12.5t34 32t37.5 43l36.5 45.5l30.5 39l19.5 25
q8 9 16 10.5t12 -4.5t1.5 -18t-14.5 -28zM220 155l12 47t12 52t7.5 41.5t-1.5 15.5q-5 -1 -11 -3q-5 -2 -13 -3t-16 -3q8 16 9.5 26.5t0.5 16.5q-1 7 -4 11q-11 9 -38.5 -14.5t-63.5 -86.5q-15 -26 -24 -55.5t-12.5 -55.5t-1.5 -45.5t8 -25.5q11 -11 25 -10.5t28.5 8
t29 19.5t26 25t19 24t8.5 16zM289 615q9 7 20 -1t16 -24q7 -21 1 -31.5t-18 -18.5q-6 -5 -22.5 -14t-36 -18.5t-38.5 -17t-29 -8.5q-11 -1 -17 2.5t-9.5 8.5t-4.5 11.5t-1 11.5q78 54 109 77z" />
    <glyph glyph-name="agrave" unicode="&#xe0;" horiz-adv-x="446" 
d="M513 199l-36 -49.5l-45.5 -59t-46 -54t-37.5 -34.5q-10 -6 -23 -10t-26.5 -5t-25.5 1.5t-21 8.5q-9 7 -15 20q-5 11 -9.5 29t-3.5 45q-24 -40 -53 -61.5t-55 -31.5q-30 -11 -60 -13q-14 0 -30 9.5t-27 30t-14 53t8 77.5q14 61 44.5 111t66.5 85.5t71 53.5t58 16
q27 -5 44 -16q14 -10 18.5 -29.5t-16.5 -51.5q14 3 23.5 4t14.5 1q6 0 8 -1q1 -2 1 -8.5t-3 -23.5t-9 -46l-16 -75q-2 -9 -3.5 -16.5l-3 -15l-3.5 -17.5l-5 -25q-1 -9 -0.5 -19.5t3.5 -19.5t9.5 -14.5t18.5 -5.5q10 0 26 12.5t34 32t37.5 43l36.5 45.5l30.5 39l19.5 25
q8 9 16 10.5t12 -4.5t1.5 -18t-14.5 -28zM220 155l12 47t12 52t7.5 41.5t-1.5 15.5q-5 -1 -11 -3q-5 -2 -13 -3t-16 -3q8 16 9.5 26.5t0.5 16.5q-1 7 -4 11q-11 9 -38.5 -14.5t-63.5 -86.5q-15 -26 -24 -55.5t-12.5 -55.5t-1.5 -45.5t8 -25.5q11 -11 25 -10.5t28.5 8
t29 19.5t26 25t19 24t8.5 16zM197 611q6 -3 21.5 -13.5t32.5 -24l32.5 -27t20.5 -22.5q11 -18 2.5 -27.5t-18.5 -15.5l-71.5 38l-46.5 24l-33 17q-9 5 -7 18.5t13 25.5q16 16 28 15t26 -8z" />
    <glyph glyph-name="acircumflex" unicode="&#xe2;" horiz-adv-x="446" 
d="M513 199l-36 -49.5l-45.5 -59t-46 -54t-37.5 -34.5q-10 -6 -23 -10t-26.5 -5t-25.5 1.5t-21 8.5q-9 7 -15 20q-5 11 -9.5 29t-3.5 45q-24 -40 -53 -61.5t-55 -31.5q-30 -11 -60 -13q-14 0 -30 9.5t-27 30t-14 53t8 77.5q14 61 44.5 111t66.5 85.5t71 53.5t58 16
q27 -5 44 -16q14 -10 18.5 -29.5t-16.5 -51.5q14 3 23.5 4t14.5 1q6 0 8 -1q1 -2 1 -8.5t-3 -23.5t-9 -46l-16 -75q-2 -9 -3.5 -16.5l-3 -15l-3.5 -17.5l-5 -25q-1 -9 -0.5 -19.5t3.5 -19.5t9.5 -14.5t18.5 -5.5q10 0 26 12.5t34 32t37.5 43l36.5 45.5l30.5 39l19.5 25
q8 9 16 10.5t12 -4.5t1.5 -18t-14.5 -28zM220 155l12 47t12 52t7.5 41.5t-1.5 15.5q-5 -1 -11 -3q-5 -2 -13 -3t-16 -3q8 16 9.5 26.5t0.5 16.5q-1 7 -4 11q-11 9 -38.5 -14.5t-63.5 -86.5q-15 -26 -24 -55.5t-12.5 -55.5t-1.5 -45.5t8 -25.5q11 -11 25 -10.5t28.5 8
t29 19.5t26 25t19 24t8.5 16zM336 531q9 -15 17 -25.5t21 -16.5q-8 -5 -18.5 -6t-20.5 -1q-11 0 -24 2q-9 1 -16.5 4.5t-14.5 10.5t-14 19t-16 31q0 1 -0.5 1.5t-0.5 1.5l-51 -41t-16 -13q-16 -14 -32.5 -12t-29.5 1h-12q-5 0 -11 -0.5t-11 -1.5l17 14l25 20q15 11 32 25
l16 13l20 16t19 14.5t12 8.5q3 3 14 4.5t23.5 1.5t23 -1.5t12.5 -5.5q2 -3 7 -12l10.5 -19.5t11 -19.5t7.5 -13z" />
    <glyph glyph-name="adieresis" unicode="&#xe4;" horiz-adv-x="446" 
d="M513 199l-36 -49.5l-45.5 -59t-46 -54t-37.5 -34.5q-10 -6 -23 -10t-26.5 -5t-25.5 1.5t-21 8.5q-9 7 -15 20q-5 11 -9.5 29t-3.5 45q-24 -40 -53 -61.5t-55 -31.5q-30 -11 -60 -13q-14 0 -30 9.5t-27 30t-14 53t8 77.5q14 61 44.5 111t66.5 85.5t71 53.5t58 16
q27 -5 44 -16q14 -10 18.5 -29.5t-16.5 -51.5q14 3 23.5 4t14.5 1q6 0 8 -1q1 -2 1 -8.5t-3 -23.5t-9 -46l-16 -75q-2 -9 -3.5 -16.5l-3 -15l-3.5 -17.5l-5 -25q-1 -9 -0.5 -19.5t3.5 -19.5t9.5 -14.5t18.5 -5.5q10 0 26 12.5t34 32t37.5 43l36.5 45.5l30.5 39l19.5 25
q8 9 16 10.5t12 -4.5t1.5 -18t-14.5 -28zM220 155l12 47t12 52t7.5 41.5t-1.5 15.5q-5 -1 -11 -3q-5 -2 -13 -3t-16 -3q8 16 9.5 26.5t0.5 16.5q-1 7 -4 11q-11 9 -38.5 -14.5t-63.5 -86.5q-15 -26 -24 -55.5t-12.5 -55.5t-1.5 -45.5t8 -25.5q11 -11 25 -10.5t28.5 8
t29 19.5t26 25t19 24t8.5 16zM321 480q-21 0 -29.5 8t-8.5 22q0 9 6 18t15.5 16t22 11t25.5 4q25 0 34.5 -8.5t9.5 -22.5q0 -11 -7.5 -20t-18.5 -15t-24 -9.5t-25 -3.5zM238 534q0 -19 -22.5 -37.5t-59.5 -18.5q-19 0 -25 8.5t-6 17.5q0 19 18 38t53 19q16 0 29 -5t13 -22z
" />
    <glyph glyph-name="atilde" unicode="&#xe3;" horiz-adv-x="446" 
d="M513 199l-36 -49.5l-45.5 -59t-46 -54t-37.5 -34.5q-10 -6 -23 -10t-26.5 -5t-25.5 1.5t-21 8.5q-9 7 -15 20q-5 11 -9.5 29t-3.5 45q-24 -40 -53 -61.5t-55 -31.5q-30 -11 -60 -13q-14 0 -30 9.5t-27 30t-14 53t8 77.5q14 61 44.5 111t66.5 85.5t71 53.5t58 16
q27 -5 44 -16q14 -10 18.5 -29.5t-16.5 -51.5q14 3 23.5 4t14.5 1q6 0 8 -1q1 -2 1 -8.5t-3 -23.5t-9 -46l-16 -75q-2 -9 -3.5 -16.5l-3 -15l-3.5 -17.5l-5 -25q-1 -9 -0.5 -19.5t3.5 -19.5t9.5 -14.5t18.5 -5.5q10 0 26 12.5t34 32t37.5 43l36.5 45.5l30.5 39l19.5 25
q8 9 16 10.5t12 -4.5t1.5 -18t-14.5 -28zM220 155l12 47t12 52t7.5 41.5t-1.5 15.5q-5 -1 -11 -3q-5 -2 -13 -3t-16 -3q8 16 9.5 26.5t0.5 16.5q-1 7 -4 11q-11 9 -38.5 -14.5t-63.5 -86.5q-15 -26 -24 -55.5t-12.5 -55.5t-1.5 -45.5t8 -25.5q11 -11 25 -10.5t28.5 8
t29 19.5t26 25t19 24t8.5 16zM375 575q17 -10 17 -33q0 -12 -7.5 -24t-21 -20.5t-32 -12.5t-40.5 -1q-23 3 -41 9t-33 10.5t-29 6t-30 -4.5l-18 -8l-16.5 -8.5t-15.5 -9.5q-6 1 -10 4t-7 5q-4 3 -5 6q-4 6 -6 12q-2 5 -2.5 11t2.5 11q12 16 29.5 24t34.5 11q19 4 40 3
q27 -1 43.5 -6t30.5 -10.5t28 -8.5t37 0q7 1 16 5q8 4 17 10.5t19 18.5z" />
    <glyph glyph-name="aring" unicode="&#xe5;" horiz-adv-x="446" 
d="M513 199l-36 -49.5l-45.5 -59t-46 -54t-37.5 -34.5q-10 -6 -23 -10t-26.5 -5t-25.5 1.5t-21 8.5q-9 7 -15 20q-5 11 -9.5 29t-3.5 45q-24 -40 -53 -61.5t-55 -31.5q-30 -11 -60 -13q-14 0 -30 9.5t-27 30t-14 53t8 77.5q14 61 44.5 111t66.5 85.5t71 53.5t58 16
q27 -5 44 -16q14 -10 18.5 -29.5t-16.5 -51.5q14 3 23.5 4t14.5 1q6 0 8 -1q1 -2 1 -8.5t-3 -23.5t-9 -46l-16 -75q-2 -9 -3.5 -16.5l-3 -15l-3.5 -17.5l-5 -25q-1 -9 -0.5 -19.5t3.5 -19.5t9.5 -14.5t18.5 -5.5q10 0 26 12.5t34 32t37.5 43l36.5 45.5l30.5 39l19.5 25
q8 9 16 10.5t12 -4.5t1.5 -18t-14.5 -28zM220 155l12 47t12 52t7.5 41.5t-1.5 15.5q-5 -1 -11 -3q-5 -2 -13 -3t-16 -3q8 16 9.5 26.5t0.5 16.5q-1 7 -4 11q-11 9 -38.5 -14.5t-63.5 -86.5q-15 -26 -24 -55.5t-12.5 -55.5t-1.5 -45.5t8 -25.5q11 -11 25 -10.5t28.5 8
t29 19.5t26 25t19 24t8.5 16zM237 586q18 0 30 -5t19 -12.5t10 -16.5t3 -18q0 -11 -5 -23.5t-14 -23.5t-22.5 -18.5t-31.5 -7.5q-21 0 -33.5 5.5t-19.5 13.5t-9.5 17.5t-2.5 18.5q0 13 6 25.5t16.5 22.5t24.5 16t29 6zM228 497q14 0 20.5 11t6.5 20q0 8 -4.5 15t-18.5 7
q-11 0 -19 -9t-8 -20q0 -8 4.5 -16t18.5 -8z" />
    <glyph glyph-name="ccedilla" unicode="&#xe7;" horiz-adv-x="372" 
d="M126 -74q56 2 81.5 -16t20.5 -50q-2 -17 -15 -32.5t-34 -28t-48 -21.5t-57 -12q-13 -2 -20 2t-7.5 9.5t6 11.5t19.5 9q33 8 57 22t27 32q2 17 -18 26.5t-54 6.5q-12 -1 -19 4t-5 16q0 3 4 13l9 22t9.5 24t7.5 18q-29 9 -48 27t-31 41.5t-16.5 50t-4.5 52.5q0 31 14 77
t41.5 88.5t69.5 73t99 30.5q32 0 54.5 -22t21.5 -60q0 -18 -6 -35.5t-16 -31t-23.5 -21.5t-29.5 -8q-13 0 -19.5 9.5t-8 22t0 24.5t3.5 16q5 7 11 10l14 7q6 3 9.5 9t3.5 13t-4 12t-13 5t-32.5 -14.5t-48 -43t-43.5 -71.5t-20 -100q-1 -33 9 -54t25 -33t33 -17t35 -5
q31 0 68.5 24.5t73 57.5t65 67.5t44.5 55.5q9 13 17 15.5t12 -2.5t3 -15.5t-9 -23.5q-7 -12 -22.5 -33.5t-37.5 -47t-49 -52.5t-57 -50t-62 -38.5t-64 -17.5q-8 -12 -26 -48z" />
    <glyph glyph-name="eacute" unicode="&#xe9;" horiz-adv-x="381" 
d="M453 208q-30 -44 -68 -85.5t-80.5 -74t-87 -52.5t-86.5 -20q-22 0 -47.5 10.5t-46.5 32.5t-33.5 57t-7.5 85q4 41 25.5 86.5t53 83.5t71 63t79.5 25q38 0 55 -19t15 -47q-3 -31 -17.5 -57t-34.5 -47t-42.5 -38l-42.5 -31l-42 -28.5l-35 -24.5q1 -25 9 -42t20 -27.5
t27.5 -15t31.5 -4.5q34 0 71 21.5t72.5 52t66 63.5t50.5 57q7 8 14.5 9.5t12 -2t4.5 -12t-7 -19.5zM197 362q-12 0 -28.5 -12t-32.5 -34.5t-30 -55t-21 -74.5q12 9 26 18.5t28 20.5q43 33 60 58t19 43q2 19 -4 27.5t-17 8.5zM279 615q9 7 20 -1t16 -24q7 -21 1 -31.5
t-18 -18.5q-6 -5 -22.5 -14t-36 -18.5t-38.5 -17t-29 -8.5q-11 -1 -17 2.5t-9.5 8.5t-4.5 11.5t-1 11.5q78 54 109 77z" />
    <glyph glyph-name="egrave" unicode="&#xe8;" horiz-adv-x="381" 
d="M453 208q-30 -44 -68 -85.5t-80.5 -74t-87 -52.5t-86.5 -20q-22 0 -47.5 10.5t-46.5 32.5t-33.5 57t-7.5 85q4 41 25.5 86.5t53 83.5t71 63t79.5 25q38 0 55 -19t15 -47q-3 -31 -17.5 -57t-34.5 -47t-42.5 -38l-42.5 -31l-42 -28.5l-35 -24.5q1 -25 9 -42t20 -27.5
t27.5 -15t31.5 -4.5q34 0 71 21.5t72.5 52t66 63.5t50.5 57q7 8 14.5 9.5t12 -2t4.5 -12t-7 -19.5zM197 362q-12 0 -28.5 -12t-32.5 -34.5t-30 -55t-21 -74.5q12 9 26 18.5t28 20.5q43 33 60 58t19 43q2 19 -4 27.5t-17 8.5zM187 611q6 -3 21.5 -13.5t32.5 -24l32.5 -27
t20.5 -22.5q11 -18 2.5 -27.5t-18.5 -15.5l-71.5 38l-46.5 24l-33 17q-9 5 -7 18.5t13 25.5q16 16 28 15t26 -8z" />
    <glyph glyph-name="ecircumflex" unicode="&#xea;" horiz-adv-x="381" 
d="M453 208q-30 -44 -68 -85.5t-80.5 -74t-87 -52.5t-86.5 -20q-22 0 -47.5 10.5t-46.5 32.5t-33.5 57t-7.5 85q4 41 25.5 86.5t53 83.5t71 63t79.5 25q38 0 55 -19t15 -47q-3 -31 -17.5 -57t-34.5 -47t-42.5 -38l-42.5 -31l-42 -28.5l-35 -24.5q1 -25 9 -42t20 -27.5
t27.5 -15t31.5 -4.5q34 0 71 21.5t72.5 52t66 63.5t50.5 57q7 8 14.5 9.5t12 -2t4.5 -12t-7 -19.5zM197 362q-12 0 -28.5 -12t-32.5 -34.5t-30 -55t-21 -74.5q12 9 26 18.5t28 20.5q43 33 60 58t19 43q2 19 -4 27.5t-17 8.5zM326 531q9 -15 17 -25.5t21 -16.5
q-8 -5 -18.5 -6t-20.5 -1q-11 0 -24 2q-9 1 -16.5 4.5t-14.5 10.5t-14 19t-16 31q0 1 -0.5 1.5t-0.5 1.5l-51 -41t-16 -13q-16 -14 -32.5 -12t-29.5 1h-12q-5 0 -11 -0.5t-11 -1.5l17 14l25 20q15 11 32 25l16 13l20 16t19 14.5t12 8.5q3 3 14 4.5t23.5 1.5t23 -1.5
t12.5 -5.5q2 -3 7 -12l10.5 -19.5t11 -19.5t7.5 -13z" />
    <glyph glyph-name="edieresis" unicode="&#xeb;" horiz-adv-x="381" 
d="M453 208q-30 -44 -68 -85.5t-80.5 -74t-87 -52.5t-86.5 -20q-22 0 -47.5 10.5t-46.5 32.5t-33.5 57t-7.5 85q4 41 25.5 86.5t53 83.5t71 63t79.5 25q38 0 55 -19t15 -47q-3 -31 -17.5 -57t-34.5 -47t-42.5 -38l-42.5 -31l-42 -28.5l-35 -24.5q1 -25 9 -42t20 -27.5
t27.5 -15t31.5 -4.5q34 0 71 21.5t72.5 52t66 63.5t50.5 57q7 8 14.5 9.5t12 -2t4.5 -12t-7 -19.5zM197 362q-12 0 -28.5 -12t-32.5 -34.5t-30 -55t-21 -74.5q12 9 26 18.5t28 20.5q43 33 60 58t19 43q2 19 -4 27.5t-17 8.5zM290 480q-21 0 -29.5 8t-8.5 22q0 9 6 18
t15.5 16t22 11t25.5 4q25 0 34.5 -8.5t9.5 -22.5q0 -11 -7.5 -20t-18.5 -15t-24 -9.5t-25 -3.5zM207 534q0 -19 -22.5 -37.5t-59.5 -18.5q-19 0 -25 8.5t-6 17.5q0 19 18 38t53 19q16 0 29 -5t13 -22z" />
    <glyph glyph-name="iacute" unicode="&#xed;" horiz-adv-x="281" 
d="M82 376q5 6 19 10t29 6.5t27.5 3t14.5 -0.5q1 -1 -5 -21t-15 -47l-19 -55.5t-15 -46.5t-12 -40.5t-12.5 -44t-7.5 -40.5t3 -29q5 -12 11 -16.5t13 -4.5q20 0 50.5 22t62 52.5t58.5 62t40 50.5q8 10 16.5 13t14 -1t6 -13t-6.5 -21q-16 -28 -47 -66.5t-66 -74t-68.5 -60.5
t-54.5 -26q-17 -1 -33.5 5.5t-30 18t-22.5 27t-10 32.5q-3 25 0 68.5t11 89t20.5 86.5t28.5 61zM259 615q9 7 20 -1t16 -24q7 -21 1 -31.5t-18 -18.5q-6 -5 -22.5 -14t-36 -18.5t-38.5 -17t-29 -8.5q-11 -1 -17 2.5t-9.5 8.5t-4.5 11.5t-1 11.5q78 54 109 77z" />
    <glyph glyph-name="igrave" unicode="&#xec;" horiz-adv-x="281" 
d="M82 376q5 6 19 10t29 6.5t27.5 3t14.5 -0.5q1 -1 -5 -21t-15 -47l-19 -55.5t-15 -46.5t-12 -40.5t-12.5 -44t-7.5 -40.5t3 -29q5 -12 11 -16.5t13 -4.5q20 0 50.5 22t62 52.5t58.5 62t40 50.5q8 10 16.5 13t14 -1t6 -13t-6.5 -21q-16 -28 -47 -66.5t-66 -74t-68.5 -60.5
t-54.5 -26q-17 -1 -33.5 5.5t-30 18t-22.5 27t-10 32.5q-3 25 0 68.5t11 89t20.5 86.5t28.5 61zM84 611q6 -3 21.5 -13.5t32.5 -24l32.5 -27t20.5 -22.5q11 -18 2.5 -27.5t-18.5 -15.5l-71.5 38l-46.5 24l-33 17q-9 5 -7 18.5t13 25.5q16 16 28 15t26 -8z" />
    <glyph glyph-name="icircumflex" unicode="&#xee;" horiz-adv-x="281" 
d="M82 376q5 6 19 10t29 6.5t27.5 3t14.5 -0.5q1 -1 -5 -21t-15 -47l-19 -55.5t-15 -46.5t-12 -40.5t-12.5 -44t-7.5 -40.5t3 -29q5 -12 11 -16.5t13 -4.5q20 0 50.5 22t62 52.5t58.5 62t40 50.5q8 10 16.5 13t14 -1t6 -13t-6.5 -21q-16 -28 -47 -66.5t-66 -74t-68.5 -60.5
t-54.5 -26q-17 -1 -33.5 5.5t-30 18t-22.5 27t-10 32.5q-3 25 0 68.5t11 89t20.5 86.5t28.5 61zM254 520q9 -15 17 -25.5t21 -16.5q-8 -5 -18.5 -6t-20.5 -1q-11 0 -24 2q-9 1 -16.5 4.5t-14.5 10.5t-14 19t-16 31q0 1 -0.5 1.5t-0.5 1.5l-51 -41t-16 -13q-16 -14 -32.5 -12
t-29.5 1h-12q-5 0 -11 -0.5t-11 -1.5l17 14l25 20q15 11 32 25l16 13l20 16t19 14.5t12 8.5q3 3 14 4.5t23.5 1.5t23 -1.5t12.5 -5.5q2 -3 7 -12l10.5 -19.5t11 -19.5t7.5 -13z" />
    <glyph glyph-name="idieresis" unicode="&#xef;" horiz-adv-x="281" 
d="M82 376q5 6 19 10t29 6.5t27.5 3t14.5 -0.5q1 -1 -5 -21t-15 -47l-19 -55.5t-15 -46.5t-12 -40.5t-12.5 -44t-7.5 -40.5t3 -29q5 -12 11 -16.5t13 -4.5q20 0 50.5 22t62 52.5t58.5 62t40 50.5q8 10 16.5 13t14 -1t6 -13t-6.5 -21q-16 -28 -47 -66.5t-66 -74t-68.5 -60.5
t-54.5 -26q-17 -1 -33.5 5.5t-30 18t-22.5 27t-10 32.5q-3 25 0 68.5t11 89t20.5 86.5t28.5 61zM218 480q-21 0 -29.5 8t-8.5 22q0 9 6 18t15.5 16t22 11t25.5 4q25 0 34.5 -8.5t9.5 -22.5q0 -11 -7.5 -20t-18.5 -15t-24 -9.5t-25 -3.5zM135 534q0 -19 -22.5 -37.5
t-59.5 -18.5q-19 0 -25 8.5t-6 17.5q0 19 18 38t53 19q16 0 29 -5t13 -22z" />
    <glyph glyph-name="ntilde" unicode="&#xf1;" horiz-adv-x="473" 
d="M297 -25q-23 0 -39.5 8.5t-26.5 22.5t-13 32.5t2 39.5q3 14 10 37.5l14.5 51t14 55t8.5 50t-2 37t-17 14.5q-16 0 -33 -10.5t-34.5 -28.5t-35 -41.5l-34.5 -48.5q-9 -34 -15 -59.5l-10.5 -46t-8.5 -36t-7 -29.5q-3 -10 -18 -19.5t-32 -15.5t-29.5 -6t-10.5 9q1 6 6.5 27
l13 49.5l15.5 60.5l15 61l11 51q5 24 12.5 56t17.5 70q7 6 14.5 9.5t15.5 5.5q8 3 17 4q8 0 16 -1q7 -1 14.5 -3.5t13.5 -7.5q-3 -7 -7 -19.5t-8 -26.5q-4 -16 -10 -33q13 18 29.5 36.5t36 33.5t41.5 24.5t45 9.5q19 0 34 -11t23.5 -30.5t10 -46.5t-7.5 -59l-11 -44
q-5 -21 -12.5 -49.5t-18.5 -62.5q-6 -22 -4.5 -38t19.5 -16t45.5 22t55.5 53t53 63.5t38 52.5q9 13 17 17t12.5 1t4.5 -13.5t-8 -26.5q-7 -14 -21.5 -37t-34.5 -49t-43 -52.5t-48 -48t-49.5 -35t-46.5 -13.5zM385 565q17 -10 17 -33q0 -12 -7.5 -24t-21 -20.5t-32 -12.5
t-40.5 -1q-23 3 -41 9t-33 10.5t-29 6t-30 -4.5l-18 -8l-16.5 -8.5t-15.5 -9.5q-6 1 -10 4t-7 5q-4 3 -5 6q-4 6 -6 12q-2 5 -2.5 11t2.5 11q12 16 29.5 24t34.5 11q19 4 40 3q27 -1 43.5 -6t30.5 -10.5t28 -8.5t37 0q7 1 16 5q8 4 17 10.5t19 18.5z" />
    <glyph glyph-name="oacute" unicode="&#xf3;" horiz-adv-x="403" 
d="M296 159q-10 -38 -27 -71t-40.5 -57t-53 -37.5t-64.5 -13.5q-41 0 -64.5 17.5t-35 43.5t-14 57t-2.5 58q0 19 4.5 42t12.5 47t20.5 48t29.5 44q6 17 18.5 30t29 21.5t35.5 13t37 4.5q3 0 5.5 -1t5.5 -2q13 -1 32.5 -10t38 -27t31.5 -45.5t13 -66.5q0 -8 -1 -19.5
t-2 -19.5q23 9 48 22t48.5 27.5t43.5 29.5t32 27q10 9 17 10t10 -4t1 -14t-11 -20q-5 -6 -25.5 -24t-48.5 -39t-61 -41t-63 -30zM127 311q-3 -9 -3 -19q0 -16 2 -33.5t10 -31.5t25.5 -23.5t48.5 -9.5q5 0 10 0.5t10 1.5l5.5 23.5t2.5 18.5q2 19 0 39t-7.5 36.5t-14 27
t-20.5 10.5q-19 0 -36.5 -10.5t-32.5 -29.5zM63 135q0 -18 2 -35.5t8 -31t16 -22t26 -8.5q18 0 33 8.5t27 22t21.5 31t16.5 36.5q-7 -1 -13.5 -1.5t-14.5 -0.5q-38 0 -65.5 22.5t-42.5 57.5q-6 -21 -10 -41t-4 -38zM279 605q9 7 20 -1t16 -24q7 -21 1 -31.5t-18 -18.5
q-6 -5 -22.5 -14t-36 -18.5t-38.5 -17t-29 -8.5q-11 -1 -17 2.5t-9.5 8.5t-4.5 11.5t-1 11.5q78 54 109 77z" />
    <glyph glyph-name="ograve" unicode="&#xf2;" horiz-adv-x="403" 
d="M296 159q-10 -38 -27 -71t-40.5 -57t-53 -37.5t-64.5 -13.5q-41 0 -64.5 17.5t-35 43.5t-14 57t-2.5 58q0 19 4.5 42t12.5 47t20.5 48t29.5 44q6 17 18.5 30t29 21.5t35.5 13t37 4.5q3 0 5.5 -1t5.5 -2q13 -1 32.5 -10t38 -27t31.5 -45.5t13 -66.5q0 -8 -1 -19.5
t-2 -19.5q23 9 48 22t48.5 27.5t43.5 29.5t32 27q10 9 17 10t10 -4t1 -14t-11 -20q-5 -6 -25.5 -24t-48.5 -39t-61 -41t-63 -30zM127 311q-3 -9 -3 -19q0 -16 2 -33.5t10 -31.5t25.5 -23.5t48.5 -9.5q5 0 10 0.5t10 1.5l5.5 23.5t2.5 18.5q2 19 0 39t-7.5 36.5t-14 27
t-20.5 10.5q-19 0 -36.5 -10.5t-32.5 -29.5zM63 135q0 -18 2 -35.5t8 -31t16 -22t26 -8.5q18 0 33 8.5t27 22t21.5 31t16.5 36.5q-7 -1 -13.5 -1.5t-14.5 -0.5q-38 0 -65.5 22.5t-42.5 57.5q-6 -21 -10 -41t-4 -38zM187 601q6 -3 21.5 -13.5t32.5 -24l32.5 -27t20.5 -22.5
q11 -18 2.5 -27.5t-18.5 -15.5l-71.5 38l-46.5 24l-33 17q-9 5 -7 18.5t13 25.5q16 16 28 15t26 -8z" />
    <glyph glyph-name="ocircumflex" unicode="&#xf4;" horiz-adv-x="403" 
d="M296 159q-10 -38 -27 -71t-40.5 -57t-53 -37.5t-64.5 -13.5q-41 0 -64.5 17.5t-35 43.5t-14 57t-2.5 58q0 19 4.5 42t12.5 47t20.5 48t29.5 44q6 17 18.5 30t29 21.5t35.5 13t37 4.5q3 0 5.5 -1t5.5 -2q13 -1 32.5 -10t38 -27t31.5 -45.5t13 -66.5q0 -8 -1 -19.5
t-2 -19.5q23 9 48 22t48.5 27.5t43.5 29.5t32 27q10 9 17 10t10 -4t1 -14t-11 -20q-5 -6 -25.5 -24t-48.5 -39t-61 -41t-63 -30zM127 311q-3 -9 -3 -19q0 -16 2 -33.5t10 -31.5t25.5 -23.5t48.5 -9.5q5 0 10 0.5t10 1.5l5.5 23.5t2.5 18.5q2 19 0 39t-7.5 36.5t-14 27
t-20.5 10.5q-19 0 -36.5 -10.5t-32.5 -29.5zM63 135q0 -18 2 -35.5t8 -31t16 -22t26 -8.5q18 0 33 8.5t27 22t21.5 31t16.5 36.5q-7 -1 -13.5 -1.5t-14.5 -0.5q-38 0 -65.5 22.5t-42.5 57.5q-6 -21 -10 -41t-4 -38zM295 520q9 -15 17 -25.5t21 -16.5q-8 -5 -18.5 -6
t-20.5 -1q-11 0 -24 2q-9 1 -16.5 4.5t-14.5 10.5t-14 19t-16 31q0 1 -0.5 1.5t-0.5 1.5l-51 -41t-16 -13q-16 -14 -32.5 -12t-29.5 1h-12q-5 0 -11 -0.5t-11 -1.5l17 14l25 20q15 11 32 25l16 13l20 16t19 14.5t12 8.5q3 3 14 4.5t23.5 1.5t23 -1.5t12.5 -5.5q2 -3 7 -12
l10.5 -19.5t11 -19.5t7.5 -13z" />
    <glyph glyph-name="odieresis" unicode="&#xf6;" horiz-adv-x="403" 
d="M296 159q-10 -38 -27 -71t-40.5 -57t-53 -37.5t-64.5 -13.5q-41 0 -64.5 17.5t-35 43.5t-14 57t-2.5 58q0 19 4.5 42t12.5 47t20.5 48t29.5 44q6 17 18.5 30t29 21.5t35.5 13t37 4.5q3 0 5.5 -1t5.5 -2q13 -1 32.5 -10t38 -27t31.5 -45.5t13 -66.5q0 -8 -1 -19.5
t-2 -19.5q23 9 48 22t48.5 27.5t43.5 29.5t32 27q10 9 17 10t10 -4t1 -14t-11 -20q-5 -6 -25.5 -24t-48.5 -39t-61 -41t-63 -30zM127 311q-3 -9 -3 -19q0 -16 2 -33.5t10 -31.5t25.5 -23.5t48.5 -9.5q5 0 10 0.5t10 1.5l5.5 23.5t2.5 18.5q2 19 0 39t-7.5 36.5t-14 27
t-20.5 10.5q-19 0 -36.5 -10.5t-32.5 -29.5zM63 135q0 -18 2 -35.5t8 -31t16 -22t26 -8.5q18 0 33 8.5t27 22t21.5 31t16.5 36.5q-7 -1 -13.5 -1.5t-14.5 -0.5q-38 0 -65.5 22.5t-42.5 57.5q-6 -21 -10 -41t-4 -38zM278 475q-21 0 -29.5 8t-8.5 22q0 9 6 18t15.5 16t22 11
t25.5 4q25 0 34.5 -8.5t9.5 -22.5q0 -11 -7.5 -20t-18.5 -15t-24 -9.5t-25 -3.5zM195 529q0 -19 -22.5 -37.5t-59.5 -18.5q-19 0 -25 8.5t-6 17.5q0 19 18 38t53 19q16 0 29 -5t13 -22z" />
    <glyph glyph-name="otilde" unicode="&#xf5;" horiz-adv-x="403" 
d="M296 159q-10 -38 -27 -71t-40.5 -57t-53 -37.5t-64.5 -13.5q-41 0 -64.5 17.5t-35 43.5t-14 57t-2.5 58q0 19 4.5 42t12.5 47t20.5 48t29.5 44q6 17 18.5 30t29 21.5t35.5 13t37 4.5q3 0 5.5 -1t5.5 -2q13 -1 32.5 -10t38 -27t31.5 -45.5t13 -66.5q0 -8 -1 -19.5
t-2 -19.5q23 9 48 22t48.5 27.5t43.5 29.5t32 27q10 9 17 10t10 -4t1 -14t-11 -20q-5 -6 -25.5 -24t-48.5 -39t-61 -41t-63 -30zM127 311q-3 -9 -3 -19q0 -16 2 -33.5t10 -31.5t25.5 -23.5t48.5 -9.5q5 0 10 0.5t10 1.5l5.5 23.5t2.5 18.5q2 19 0 39t-7.5 36.5t-14 27
t-20.5 10.5q-19 0 -36.5 -10.5t-32.5 -29.5zM63 135q0 -18 2 -35.5t8 -31t16 -22t26 -8.5q18 0 33 8.5t27 22t21.5 31t16.5 36.5q-7 -1 -13.5 -1.5t-14.5 -0.5q-38 0 -65.5 22.5t-42.5 57.5q-6 -21 -10 -41t-4 -38zM345 565q17 -10 17 -33q0 -12 -7.5 -24t-21 -20.5
t-32 -12.5t-40.5 -1q-23 3 -41 9t-33 10.5t-29 6t-30 -4.5l-18 -8l-16.5 -8.5t-15.5 -9.5q-6 1 -10 4t-7 5q-4 3 -5 6q-4 6 -6 12q-2 5 -2.5 11t2.5 11q12 16 29.5 24t34.5 11q19 4 40 3q27 -1 43.5 -6t30.5 -10.5t28 -8.5t37 0q7 1 16 5q8 4 17 10.5t19 18.5z" />
    <glyph glyph-name="uacute" unicode="&#xfa;" horiz-adv-x="480" 
d="M124 -16q-38 0 -62 12t-37.5 29.5t-19 38t-5.5 37.5q0 30 5 63.5t12 62t12.5 48.5t7.5 25q9 29 23.5 50.5t40.5 29.5l21 4q9 1 18.5 1t17.5 -3q-27 -69 -42.5 -115t-23.5 -75q-9 -33 -11 -53q-5 -45 8 -68t53 -23q26 0 50 19.5t44 50.5q-3 16 -3 33q0 32 5.5 62.5t13 57
t16 47.5t14.5 33q11 24 20 29.5t29 6.5q8 1 13.5 0.5t9.5 -1.5q12 -3 12 -12q0 -16 -2 -48t-12 -66q-7 -28 -13.5 -47.5t-12.5 -33t-12 -22l-11 -15.5q2 -30 5 -48t7.5 -27.5t11 -13t14.5 -3.5q14 0 33 13.5t39.5 34t41 45l37.5 46.5l29 38.5l15 20.5q7 9 13.5 11t10.5 -1.5
t4.5 -11t-4.5 -16.5q-20 -38 -49.5 -80.5t-63 -78.5t-67.5 -60t-64 -24q-27 0 -42.5 18.5t-26.5 53.5q-23 -36 -54 -55.5t-69 -19.5zM300 584q9 7 20 -1t16 -24q7 -21 1 -31.5t-18 -18.5q-6 -5 -22.5 -14t-36 -18.5t-38.5 -17t-29 -8.5q-11 -1 -17 2.5t-9.5 8.5t-4.5 11.5
t-1 11.5q78 54 109 77z" />
    <glyph glyph-name="ugrave" unicode="&#xf9;" horiz-adv-x="480" 
d="M124 -16q-38 0 -62 12t-37.5 29.5t-19 38t-5.5 37.5q0 30 5 63.5t12 62t12.5 48.5t7.5 25q9 29 23.5 50.5t40.5 29.5l21 4q9 1 18.5 1t17.5 -3q-27 -69 -42.5 -115t-23.5 -75q-9 -33 -11 -53q-5 -45 8 -68t53 -23q26 0 50 19.5t44 50.5q-3 16 -3 33q0 32 5.5 62.5t13 57
t16 47.5t14.5 33q11 24 20 29.5t29 6.5q8 1 13.5 0.5t9.5 -1.5q12 -3 12 -12q0 -16 -2 -48t-12 -66q-7 -28 -13.5 -47.5t-12.5 -33t-12 -22l-11 -15.5q2 -30 5 -48t7.5 -27.5t11 -13t14.5 -3.5q14 0 33 13.5t39.5 34t41 45l37.5 46.5l29 38.5l15 20.5q7 9 13.5 11t10.5 -1.5
t4.5 -11t-4.5 -16.5q-20 -38 -49.5 -80.5t-63 -78.5t-67.5 -60t-64 -24q-27 0 -42.5 18.5t-26.5 53.5q-23 -36 -54 -55.5t-69 -19.5zM197 580q6 -3 21.5 -13.5t32.5 -24l32.5 -27t20.5 -22.5q11 -18 2.5 -27.5t-18.5 -15.5l-71.5 38l-46.5 24l-33 17q-9 5 -7 18.5t13 25.5
q16 16 28 15t26 -8z" />
    <glyph glyph-name="ucircumflex" unicode="&#xfb;" horiz-adv-x="480" 
d="M124 -16q-38 0 -62 12t-37.5 29.5t-19 38t-5.5 37.5q0 30 5 63.5t12 62t12.5 48.5t7.5 25q9 29 23.5 50.5t40.5 29.5l21 4q9 1 18.5 1t17.5 -3q-27 -69 -42.5 -115t-23.5 -75q-9 -33 -11 -53q-5 -45 8 -68t53 -23q26 0 50 19.5t44 50.5q-3 16 -3 33q0 32 5.5 62.5t13 57
t16 47.5t14.5 33q11 24 20 29.5t29 6.5q8 1 13.5 0.5t9.5 -1.5q12 -3 12 -12q0 -16 -2 -48t-12 -66q-7 -28 -13.5 -47.5t-12.5 -33t-12 -22l-11 -15.5q2 -30 5 -48t7.5 -27.5t11 -13t14.5 -3.5q14 0 33 13.5t39.5 34t41 45l37.5 46.5l29 38.5l15 20.5q7 9 13.5 11t10.5 -1.5
t4.5 -11t-4.5 -16.5q-20 -38 -49.5 -80.5t-63 -78.5t-67.5 -60t-64 -24q-27 0 -42.5 18.5t-26.5 53.5q-23 -36 -54 -55.5t-69 -19.5zM346 510q9 -15 17 -25.5t21 -16.5q-8 -5 -18.5 -6t-20.5 -1q-11 0 -24 2q-9 1 -16.5 4.5t-14.5 10.5t-14 19t-16 31q0 1 -0.5 1.5t-0.5 1.5
l-51 -41t-16 -13q-16 -14 -32.5 -12t-29.5 1h-12q-5 0 -11 -0.5t-11 -1.5l17 14l25 20q15 11 32 25l16 13l20 16t19 14.5t12 8.5q3 3 14 4.5t23.5 1.5t23 -1.5t12.5 -5.5q2 -3 7 -12l10.5 -19.5t11 -19.5t7.5 -13z" />
    <glyph glyph-name="udieresis" unicode="&#xfc;" horiz-adv-x="480" 
d="M124 -16q-38 0 -62 12t-37.5 29.5t-19 38t-5.5 37.5q0 30 5 63.5t12 62t12.5 48.5t7.5 25q9 29 23.5 50.5t40.5 29.5l21 4q9 1 18.5 1t17.5 -3q-27 -69 -42.5 -115t-23.5 -75q-9 -33 -11 -53q-5 -45 8 -68t53 -23q26 0 50 19.5t44 50.5q-3 16 -3 33q0 32 5.5 62.5t13 57
t16 47.5t14.5 33q11 24 20 29.5t29 6.5q8 1 13.5 0.5t9.5 -1.5q12 -3 12 -12q0 -16 -2 -48t-12 -66q-7 -28 -13.5 -47.5t-12.5 -33t-12 -22l-11 -15.5q2 -30 5 -48t7.5 -27.5t11 -13t14.5 -3.5q14 0 33 13.5t39.5 34t41 45l37.5 46.5l29 38.5l15 20.5q7 9 13.5 11t10.5 -1.5
t4.5 -11t-4.5 -16.5q-20 -38 -49.5 -80.5t-63 -78.5t-67.5 -60t-64 -24q-27 0 -42.5 18.5t-26.5 53.5q-23 -36 -54 -55.5t-69 -19.5zM317 477q-21 0 -29.5 8t-8.5 22q0 9 6 18t15.5 16t22 11t25.5 4q25 0 34.5 -8.5t9.5 -22.5q0 -11 -7.5 -20t-18.5 -15t-24 -9.5t-25 -3.5z
M234 531q0 -19 -22.5 -37.5t-59.5 -18.5q-19 0 -25 8.5t-6 17.5q0 19 18 38t53 19q16 0 29 -5t13 -22z" />
    <glyph glyph-name="degree" unicode="&#xb0;" horiz-adv-x="148" 
d="M138 687q35 0 48.5 -17.5t13.5 -34.5q0 -11 -5 -23.5t-14 -23.5t-22.5 -18.5t-31.5 -7.5q-21 0 -33.5 5.5t-20 13.5t-10 17.5t-2.5 18.5q0 13 6.5 25.5t17 22.5t24.5 16t29 6zM129 598q13 0 20 11t7 20q0 8 -4.5 15t-18.5 7q-11 0 -19.5 -9t-8.5 -20q0 -8 5 -16t19 -8z
" />
    <glyph glyph-name="cent" unicode="&#xa2;" horiz-adv-x="330" 
d="M272 645q13 -3 27 -11t24 -24t15 -41t1 -61q-5 -41 -25 -69.5t-58 -28.5q-20 0 -30.5 20t-7.5 49q3 26 23.5 49t46.5 29q-2 17 -10 32.5t-26 15.5t-39 -14t-42 -38.5t-40.5 -58t-35 -71.5t-24.5 -79.5t-9 -82.5q0 -18 4 -39t12.5 -39t22 -30t33.5 -12q30 0 58 18.5
t52 50.5q9 12 16 14t10.5 -1.5t3 -11.5t-6.5 -17q-20 -32 -49.5 -61.5t-71.5 -39.5l-32 -92q-12 -7 -24 -9q-6 -1 -12 -1q-6 -1 -10 1q-10 2 -9 11q8 21 12.5 37.5t7.5 28.5q4 14 5 25q-23 9 -41 29t-30 51t-16 70.5t1 87.5q5 45 23.5 94.5t48 94t67 77.5t80.5 44
q1 6 4 17.5l6.5 24t6.5 24.5t6 20q2 4 10 8t20 2q26 -3 22 -16q-3 -11 -9 -35t-11 -42z" />
    <glyph glyph-name="sterling" unicode="&#xa3;" horiz-adv-x="326" 
d="M279 696q23 -2 39.5 -12.5t27 -27t14 -36.5t1.5 -39q-2 -23 -11 -43t-22.5 -34.5t-31.5 -23t-37 -8.5q-15 0 -24 7t-14 16.5t-6.5 20t-1.5 16.5q5 -4 19 -4t29 7.5t28 24.5t16 47q2 23 -10.5 33.5t-27.5 10.5q-11 0 -26.5 -4.5t-30.5 -16.5t-28.5 -33t-21.5 -54
q-10 -37 -17 -79t-20 -98h36q16 0 36.5 1t40.5 4q-4 -16 -7 -23q-3 -5 -5 -11q-8 -14 -17.5 -22.5t-34.5 -8.5q-9 0 -26 0.5t-37 2.5q-7 -24 -16 -51t-20 -53.5t-25.5 -51t-31.5 -43.5q20 8 52 16t78 11q72 5 97.5 -3t18.5 -29q-2 -8 -6 -16q-3 -7 -7 -15t-9 -15
q-4 7 -12.5 10.5t-17.5 5.5q-11 2 -22 2q-16 0 -40 -1.5t-52.5 -4.5t-60.5 -7t-63 -9q-4 1 -7.5 5t-5.5 9q-3 5 -5 12q-2 6 -3 12q-1 5 -1.5 10.5t1.5 10.5q7 2 14 10.5t13 17.5q7 11 13 23q13 26 26 65t26 86q-15 2 -26 5t-16 7q-7 5 -8.5 11.5t0 13t4.5 12t5 9.5
q10 -1 19.5 -1.5t17.5 -1.5q9 -1 18 -1q11 42 20.5 84l17.5 80q7 34 22 64.5t37.5 53t53.5 35t71 9.5z" />
    <glyph glyph-name="section" unicode="&#xa7;" horiz-adv-x="305" 
d="M95 -24q-22 0 -44.5 5.5t-40.5 17.5t-29.5 29.5t-11.5 41.5t7.5 39.5t19.5 24.5t25.5 11.5t25.5 1.5q9 -1 16 -3q6 -2 11.5 -4.5t7.5 -6.5q-23 -8 -35.5 -31t-12.5 -46q0 -16 10.5 -33.5t34.5 -17.5q17 0 33 9.5t28 24.5t19 33.5t7 36.5q0 35 -19 56.5t-44 41.5l-33 26
t-31 28t-23 33.5t-9 42.5q0 32 14 56.5t37 42t51.5 27.5t58.5 13l-10.5 10l-11.5 10q-14 12 -27 24.5t-23.5 26.5t-17 30t-6.5 37t13.5 46t37.5 46.5t58.5 36t76.5 14.5q21 0 39 -8t31 -20.5t20.5 -28.5t7.5 -31q0 -48 -19.5 -69t-42.5 -21q-11 0 -21 1q-8 1 -16.5 2.5
t-11.5 5.5q17 15 25.5 31t13.5 30q5 16 6 31q0 23 -9 38t-27 15q-22 0 -42 -13.5t-35.5 -33t-24.5 -40.5t-9 -36q0 -20 9 -38.5t22 -33.5t25.5 -26.5t20.5 -17.5q8 -7 19.5 -18.5t22 -27.5t18 -36.5t7.5 -44.5q0 -32 -15 -55t-37 -39.5t-46 -26.5t-43 -15q2 -2 4 -3
q12 -11 27.5 -23t29 -26t22.5 -31.5t9 -39.5q0 -27 -12.5 -51t-32.5 -42t-45.5 -28.5t-52.5 -10.5zM113 263q16 3 34.5 10t34.5 19.5t27 31.5t11 47q0 24 -6 42t-16 31q-35 -3 -58 -15t-36.5 -28t-19.5 -33.5t-6 -32.5q0 -20 10 -37.5t25 -34.5z" />
    <glyph glyph-name="bullet" unicode="&#x2022;" horiz-adv-x="185" 
d="M52 175q-22 0 -34.5 9.5t-18.5 23.5t-7.5 30.5t-1.5 31.5q0 18 7 41t20 44t32.5 35t45.5 14q7 0 18 -4.5t21.5 -14t18 -25t7.5 -36.5q0 -27 -7.5 -54t-21.5 -48t-34 -34t-45 -13z" />
    <glyph glyph-name="paragraph" unicode="&#xb6;" horiz-adv-x="421" 
d="M198 355q-29 4 -60 14.5t-56 30.5t-40 50.5t-10 75.5q4 54 28 89t55.5 56t65.5 29.5t58 8.5h44l6 24q5 5 11 9t12 6q7 3 15 4q7 1 12 1t9 -2t6 -7q-2 -5 -3 -11t-3 -11q-2 -6 -3 -13l51 -1q0 2 1 5q1 2 1 4t1 4q5 11 15.5 16t21.5 8q13 3 29 4q-2 -6 -3 -13.5t-3 -13.5
q-2 -7 -3 -14h57q-2 -31 -24.5 -48t-49.5 -23q-6 -29 -13.5 -61l-15 -65.5l-15 -66.5t-13.5 -62l-16.5 -76l-17 -79.5l-17 -76t-16.5 -65.5t-14.5 -48.5t-11.5 -24.5q-7 -10 -19 -15.5t-25 -7.5q-15 -3 -31 -3q13 16 24.5 43.5t19.5 55.5q10 32 18 68q11 47 21 95.5l19 95
l18 90l17 80.5l14.5 62l13.5 58l-52 2l-27.5 -115.5l-35.5 -146.5l-23 -101l-27.5 -117.5l-36.5 -154.5q-14 -8 -29.5 -12t-29.5 -6q-16 -3 -31 -2q14 23 24 50.5l18 50.5q9 27 15 53q5 19 11.5 46l13.5 57l14.5 60z" />
    <glyph glyph-name="germandbls" unicode="&#xdf;" horiz-adv-x="507" 
d="M318 353q3 -17 19.5 -43t39.5 -59l25.5 -36.5t27 -40.5t20.5 -37.5t6 -28.5q-3 -17 -17 -41t-36 -46.5t-49.5 -38.5t-57.5 -16q-21 0 -40.5 13t-33 30.5t-20 34.5t-1.5 26q6 12 11 19t15 16q4 3 10 7q5 3 14 6l21 7q10 -31 18 -48.5t13 -27.5q6 -11 11 -15q6 -4 15.5 -4
t19 4t18 11t12.5 18t-3 31.5t-19.5 44t-27 47.5t-23.5 43q-17 38 -32.5 65t-19.5 56q-1 13 8.5 37.5t23.5 54.5l28 61t21 56.5t3.5 41.5t-24.5 16q-22 0 -40.5 -10t-34 -26.5t-27.5 -38t-19 -44.5l-28 -79l-38.5 -116.5l-57.5 -181.5q57 -41 88.5 -84t45.5 -79
q17 -42 19 -82q0 -44 -13 -88.5t-34.5 -85t-50 -75.5t-59.5 -60t-63.5 -38t-61.5 -10q-22 2 -35 13.5t-20 29t-7.5 39t2.5 42.5q2 13 9.5 45.5l18 75.5l23 92.5l25 97l23.5 89.5t19 69q-19 11 -36.5 19t-32.5 14q-16 7 -22.5 15t-4 14t12.5 8.5t26 -2.5q28 -7 68 -25
l19 67.5l19 68.5l20.5 72l22.5 78q16 57 36.5 101t46.5 74t59 45.5t74 15.5q21 0 40.5 -8.5t35 -23.5t25 -35.5t9.5 -45.5q0 -30 -15.5 -63t-34.5 -63l-34 -53t-14 -32zM138 -54q-8 21 -20 43q-11 19 -26.5 40.5t-37.5 41.5q-15 -55 -25.5 -100l-18.5 -78q-9 -39 -15 -69
l-18.5 -75t-14.5 -66.5t-4.5 -47.5t12.5 -18q29 -2 60.5 22.5t58 62t44 81t17.5 80.5q0 20 -2 41t-10 42z" />
    <glyph glyph-name="registered" unicode="&#xae;" horiz-adv-x="467" 
d="M294 746q51 0 90 -18.5t66 -51t40.5 -76.5t12.5 -96q-1 -53 -24 -102.5t-60 -88t-85 -62t-100 -23.5q-51 0 -91 17.5t-68 48.5t-42 72t-13 89q1 51 23 102.5t59 93.5t86 68.5t106 26.5zM447 530q1 33 -9.5 64.5t-30 56.5t-45.5 40.5t-56 15.5q-36 0 -75.5 -18t-72 -52.5
t-54.5 -84t-23 -113.5q-1 -36 9 -67t30.5 -54t51 -36t71.5 -13q36 0 72 20.5t65 55.5t47.5 83t19.5 102zM302 654q21 0 35.5 -7.5t22.5 -18.5q8 -13 11 -25.5t3 -23.5v-9q-2 -20 -14 -42t-32 -41q-9 -7 -18 -13t-20 -11q7 -10 12 -22q10 -20 15 -33.5t8 -24.5q5 -13 14 -14
q4 0 8 1q8 2 14 9q2 -9 0 -16.5t-5 -12.5q-4 -6 -8 -11q-5 -6 -12.5 -9t-13.5 -3q-5 0 -8 0.5t-7 1.5q-6 3 -11 10q-5 6 -8.5 15.5t-7.5 24.5q-5 14 -9.5 28.5t-11.5 28.5q-2 4 -4 7t-4 7l-10.5 -2l-11.5 -2l-3 -12l-10 -41t-10 -35q-2 -4 -4.5 -8t-6.5 -8q-11 -6 -23 -6
q-8 0 -15 4t-12 9l-7 7l8 5q2 1 2.5 2t2.5 2q1 1 2 2.5t3 3.5q3 5 7.5 16t9.5 31q2 7 4 16.5t5 20.5q-10 8 -10 21v2q1 15 14 22q5 4 11 5l12 45.5t11 39.5q-13 -11 -14 -15h-1l-5 -6l-6 5q0 1 -4.5 5t-7.5 11q-2 6 -2 12q0 5 3 10q3 4 10 10q9 6 36.5 19t72.5 13zM325 582
q0 12 -3.5 19t-8.5 11q-12 10 -26 10q-8 0 -20 -5l1 -1v-2l-1 -2q-1 -6 -3 -13l-8 -32q-5 -17 -9 -35.5t-6 -29.5q3 -2 6.5 -3.5t6.5 -3.5q5 -2 7 -5q9 6 17 10q17 11 30.5 29.5t16.5 44.5v8z" />
    <glyph glyph-name="copyright" unicode="&#xa9;" horiz-adv-x="467" 
d="M294 746q51 0 90 -18.5t66 -51t40.5 -76.5t12.5 -96q-1 -53 -24 -102.5t-60 -88t-85 -62t-100 -23.5q-51 0 -91 17.5t-68 48.5t-42 72t-13 89q1 51 23 102.5t59 93.5t86 68.5t106 26.5zM447 530q1 33 -9.5 64.5t-30 56.5t-45.5 40.5t-56 15.5q-36 0 -75.5 -18t-72 -52.5
t-54.5 -84t-23 -113.5q-1 -36 9 -67t30.5 -54t51 -36t71.5 -13q36 0 72 20.5t65 55.5t47.5 83t19.5 102zM316 650q15 0 27 -9t19.5 -23.5t11 -31.5t3.5 -33q0 -6 -5.5 -11.5t-13 -10t-15.5 -7t-12 -2.5q-5 0 -12.5 4.5t-12 11.5t-3.5 14.5t13 13.5q11 4 13 22q0 8 -6.5 11.5
t-14.5 3.5q-14 0 -32.5 -16.5t-35 -41t-28 -53.5t-11.5 -54q-1 -21 4 -34.5t13 -20.5t16.5 -9.5t15.5 -2.5q23 0 49 19.5t39 43.5q7 13 13 9.5t2 -15.5q-3 -9 -14 -26.5t-27 -34t-36 -29t-40 -12.5q-42 0 -66 35t-23 90q1 32 15.5 67t38 64.5t53.5 48.5t62 19z" />
    <glyph glyph-name="acute" unicode="&#xb4;" 
d="M401 696q9 7 20 -1t16 -24q7 -21 1 -31.5t-18 -18.5q-6 -5 -22.5 -14t-36 -18.5t-38.5 -17t-29 -8.5q-11 -1 -17 2.5t-9.5 8.5t-4.5 11.5t-1 11.5q78 54 109 77z" />
    <glyph glyph-name="dieresis" unicode="&#xa8;" 
d="M412 592q-21 0 -29.5 8t-8.5 22q0 9 6 18t15.5 16t22 11t25.5 4q25 0 34.5 -8.5t9.5 -22.5q0 -11 -7.5 -20t-18.5 -15t-24 -9.5t-25 -3.5zM329 646q0 -19 -22.5 -37.5t-59.5 -18.5q-19 0 -25 8.5t-6 17.5q0 19 18 38t53 19q16 0 29 -5t13 -22z" />
    <glyph glyph-name="AE" unicode="&#xc6;" horiz-adv-x="890" 
d="M761 754q38 0 65.5 -12.5t44.5 -31t25.5 -40t8.5 -39.5q1 -33 -8.5 -67t-24 -61.5t-32.5 -45t-34 -17.5q-13 0 -27 4q-12 3 -28 10t-32 21q25 10 45 28.5t33.5 41.5t20.5 47.5t6 46.5q-1 32 -14.5 49.5t-45.5 17.5q-42 0 -83.5 -20.5t-74 -57t-50.5 -87t-12 -109.5
q5 -45 27 -76t42 -48q16 2 29.5 3.5t27.5 1.5q16 0 32.5 -6t17.5 -17q0 -8 -4 -18t-12 -19t-19 -15t-26 -6q-12 0 -28.5 6t-34.5 15q-37 -8 -68 -28.5t-53 -48.5t-34 -61t-11 -64q1 -29 9 -58.5t25.5 -52.5t45 -37.5t67.5 -14.5q29 0 55.5 12.5t49 31.5t41 42t33 45t24 40
l13.5 26q3 6 8.5 9t10.5 1.5t8 -7.5t0 -18q-8 -36 -30 -80.5t-56.5 -83.5t-81 -65.5t-103.5 -26.5q-35 0 -66.5 8.5t-58.5 23.5l8 -18q4 -8 9 -16.5t11 -13.5l-116 -38q-12 17 -17.5 45.5t-7.5 56.5q-3 33 -1 68t11 91.5l20 123.5q-20 6 -43.5 10t-52.5 4q-26 0 -54.5 -2
t-56.5 -5q-12 -44 -24 -93q-13 -53 -23.5 -90.5t-20 -62.5t-19 -40t-20.5 -22q-12 -6 -30 -11q-17 -5 -43 -10t-67 -8q15 18 26 33t22 37t24.5 56.5l34.5 90.5q9 23 18.5 50.5t20.5 56.5q-36 -5 -61 -9t-30 -6q-8 -1 -13 0q-13 2 -14 13q1 14 9.5 19t25.5 12q8 4 36.5 14.5
t69.5 22.5l29.5 83.5l28.5 79.5l27 71.5t24 57.5q17 37 43.5 81.5t61 83.5t76 65t87.5 26q35 0 57.5 -19.5t19.5 -70.5q0 -5 -0.5 -10t-1.5 -12q50 54 118.5 83.5t134.5 29.5zM422 545q11 46 15 75t3 45.5t-6.5 22.5t-13.5 6q-13 0 -32 -10t-40 -28.5t-41.5 -46t-36.5 -62.5
q-23 -52 -52 -127.5t-63 -192.5q20 3 39.5 5t38.5 2q34 0 65 -2.5t57 -5.5l18.5 94.5l18.5 88.5l16.5 77t13.5 59zM443 240q45 29 97 48q-23 12 -43 29.5t-34 38.5l-10 -58z" />
    <glyph glyph-name="Oslash" unicode="&#xd8;" horiz-adv-x="612" 
d="M560 773q32 7 43 5t9 -7l-30 -50l-59 -98q14 -54 18 -126.5t-3 -160.5q-6 -63 -20.5 -126.5t-37.5 -122.5t-53.5 -110.5t-66.5 -89.5t-77.5 -60t-86.5 -22q-13 0 -39 7t-54 31l-15 -33q-17 -10 -32.5 -15t-26.5 -7q-14 -3 -25 -3q-26 0 -29 6.5t7 23.5q2 5 19.5 37
l44.5 80q-14 42 -20.5 99.5t1.5 139.5q11 134 48.5 243.5t86 187.5t100.5 120.5t92 42.5q17 0 26.5 -6.5t15.5 -16.5q8 2 16.5 3t19.5 1q28 0 50 -28q7 11 13 19.5t14.5 15.5t20 11.5t30.5 8.5zM123 178q-2 -33 -3.5 -62t-1.5 -54l57 101l59 106.5l70 126.5l133 240
q-6 26 -14.5 41t-20.5 15q-13 -1 -26 -8q-11 -6 -25.5 -19.5t-28.5 -37.5q-5 4 -9 14q-2 4 -3 9q-2 6 -3 18q-19 -22 -47 -62.5t-55.5 -100.5t-50 -141.5t-31.5 -185.5zM449 364q2 27 3 63t0 74l-57 -98l-56.5 -99l-52.5 -94.5t-44 -84.5l-59.5 -117l-43.5 -89
q12 -31 27.5 -43.5t32.5 -12.5q39 0 79.5 40t75.5 108.5t60.5 159.5t34.5 193z" />
    <glyph glyph-name="yen" unicode="&#xa5;" horiz-adv-x="334" 
d="M360 665q10 3 20.5 5.5t17 1.5t8 -6.5t-5.5 -17.5q-6 -12 -20 -36l-31 -52.5l-35 -56.5t-34 -48l-39 -45.5l-38 -41.5q-2 -9 -5.5 -19l-8.5 -24h58q14 -1 18 -6.5t0 -23.5q-5 -20 -10 -23t-13 -3t-25 1.5t-42 3.5l-4.5 -17.5t-5.5 -19.5q30 1 46.5 -1.5t21.5 -4.5
q7 -3 8.5 -10t-5.5 -23q-2 -5 -6 -9q-3 -4 -6.5 -7.5t-7.5 -4.5q-8 2 -18.5 3.5t-20.5 2.5q-11 1 -24 2q-7 -25 -11 -45q-4 -17 -7 -33t-3 -20q-8 -9 -15.5 -14t-14.5 -7q-8 -3 -16 -3t-14 2q-5 2 -10 4.5t-5 7.5q6 20 11 39t10 34q4 18 9 34q-29 -2 -45.5 -3.5l-27.5 -2.5
q-6 -1 -8 5.5t-0.5 15t5 15.5t8.5 8q8 2 29.5 5.5t51.5 5.5q1 6 2 10.5t2 9.5l6 21q-26 -2 -48 -4.5t-30 -3.5q-6 -1 -7 6t2 15.5t9.5 16.5t14.5 9l31 5t39 5q3 15 6 28t6 24q-10 22 -24.5 58t-20.5 80q-6 25 -10 51q-4 21 -7 45t-4 42q8 5 15.5 9t12.5 6q6 3 11 4t10 3
l10.5 2l10.5 2q-2 -20 -0.5 -44t3.5 -45l6 -50q7 -39 15 -70t14 -51q16 16 38 41.5t43 54.5q12 17 23 37q10 17 21 40.5t22 49.5q4 6 10.5 10.5t12.5 7.5q7 4 15 7z" />
    <glyph glyph-name="mu" unicode="&#xb5;" horiz-adv-x="464" 
d="M437 180q7 9 13 10.5t9.5 -1.5t4.5 -9.5t-3 -15.5q-34 -79 -77 -127t-105 -48q-26 0 -44.5 22t-28.5 54q-22 -34 -51 -52t-64 -18q-23 0 -40.5 5t-31.5 13q-8 -34 -16 -63l-19 -69q-11 -35 -25.5 -52t-30.5 -23t-32 -5t-29 2q8 8 15.5 24t13.5 33q7 19 14 41
q5 18 12.5 47.5l16.5 63.5l18 71l17.5 71l16 62t12.5 45q6 21 8 27q8 27 21.5 46.5t38.5 26.5q9 2 19 4q8 1 16.5 1t16.5 -4q-26 -63 -39.5 -105.5l-21.5 -68.5q-9 -31 -11 -49q-5 -42 7.5 -63.5t50.5 -21.5q23 0 45.5 18t40.5 47q-1 8 -1.5 15t-0.5 14q0 30 5 59t12 53.5
t14.5 44t13.5 30.5q10 23 18 28t28 6q16 0 21 -1q10 -3 10 -12q0 -14 -2 -44t-10 -62q-14 -51 -24.5 -73.5t-20.5 -35.5q2 -54 14 -74t29 -20q28 0 51.5 18.5t40.5 42t28.5 45t15.5 27.5z" />
    <glyph glyph-name="ordfeminine" unicode="&#xaa;" horiz-adv-x="382" 
d="M262 -9q-27 1 -69 0.5t-84 -1.5q-28 -1 -56 -4q-24 -2 -53.5 -6.5t-55.5 -11.5q-1 8 0 15.5t3 14.5q2 8 4 15q4 10 11 21t13 14q5 2 20 4t36.5 3.5t47 2.5t51.5 1q51 1 85.5 -0.5t66.5 -4.5q14 -2 16 -8.5t-4 -25.5q-6 -17 -12.5 -23.5t-19.5 -5.5zM48 106q-13 0 -27 8.5
t-23.5 27t-12.5 47t6 68.5q13 54 40 98.5t59 76t63 47.5t52 14q25 -3 39 -14q12 -9 16 -26t-15 -46q14 3 21 4t12 1q4 0 7 -1q1 -2 1 -8t-2.5 -21t-7.5 -40.5t-14 -66.5l-3.5 -14t-3 -13t-3 -15.5t-3.5 -21.5q-2 -8 -2 -18t2.5 -18.5t8 -14t15.5 -5.5q13 0 31 12.5t36 29
t33 33t23 26.5t15.5 11.5t10.5 -3.5t0 -16.5t-15 -27.5q-26 -33 -50.5 -57t-50.5 -40q-18 -13 -43.5 -15t-42.5 10q-7 6 -12 17q-5 10 -8.5 26t-2.5 40q-22 -36 -47.5 -55t-48.5 -28q-26 -11 -53 -12zM98 346q-14 -23 -21.5 -49t-10.5 -49t-1 -40.5t8 -23.5q14 -14 34 -7
t38.5 22.5t32 33t15.5 24.5q4 18 10.5 42t11 46t6.5 37t-2 14q-5 -1 -10 -3q-11 -4 -25 -5q7 14 8.5 23t0.5 14q-1 6 -5 10q-9 8 -33.5 -12.5t-56.5 -76.5z" />
    <glyph glyph-name="ordmasculine" unicode="&#xba;" horiz-adv-x="327" 
d="M224 54q13 -1 15 -8t-3 -24q-6 -17 -11.5 -24.5t-16.5 -6.5q-23 2 -58.5 1l-71.5 -2q-23 -1 -47 -4q-20 -2 -44.5 -6.5t-47.5 -11.5q-1 8 0 15.5t3 14.5q2 8 3 15q3 10 9.5 21t11.5 13q3 2 16 4.5t31 4t40 3t43 1.5q44 0 73 -1.5t55 -4.5zM362 391q18 17 24.5 6t-8.5 -30
l-15 -17.5t-25 -26t-35 -30t-43 -27.5q-8 -33 -23.5 -63t-36.5 -52.5t-48 -36t-58 -13.5q-36 0 -56.5 15.5t-30.5 39t-12.5 51t-2.5 51.5q0 35 15 80t44 81q11 31 42.5 45.5t64.5 14.5q7 0 9 -1q12 -1 29.5 -9t33.5 -24t27.5 -41t11.5 -59v-14.5t-1 -14.5q26 14 49.5 34.5z
M98 154q32 0 53 27t34 60q-6 -1 -12 -1h-12q-35 0 -58.5 19.5t-37.5 50.5q-12 -36 -12 -70q0 -16 2 -31.5t7 -27.5t13.5 -19.5t22.5 -7.5zM207 331q1 17 -0.5 34.5t-6 32t-12.5 24t-18 9.5q-32 0 -61 -35q-1 -5 -2 -9t-1 -9q0 -14 1.5 -29t9 -28t23 -21t42.5 -8h9.5t9.5 1
q6 24 6 38z" />
    <glyph glyph-name="ae" unicode="&#xe6;" horiz-adv-x="609" 
d="M227 86q-8 -12 -22 -29.5t-35 -33.5t-49.5 -27t-64.5 -11q-14 0 -30 9.5t-27 30t-14 53t8 77.5q14 61 44.5 111t66.5 85.5t71 53.5t58 16q34 -3 47 -16t14.5 -28t-4.5 -29.5t-9 -20.5l10 2l10 2q32 38 71 63t81 25q38 0 54.5 -19t13.5 -47q-3 -31 -17 -57t-34 -47
t-42.5 -38l-42.5 -31l-42 -28.5l-36 -24.5q1 -25 9.5 -42t20.5 -27.5t27.5 -15t31.5 -4.5q33 0 69.5 21t72 51.5t66 63.5l51.5 57q7 9 15 10.5t12.5 -2t5 -11.5t-6.5 -19q-30 -44 -68.5 -85.5t-81 -74.5t-87 -53t-86.5 -20q-17 0 -37 6t-38 19.5t-33 34.5t-23 50zM423 362
q-12 0 -28.5 -12t-32.5 -34.5t-29.5 -55t-20.5 -74.5l25.5 18.5l29.5 20.5q42 33 58.5 58t18.5 43q4 36 -21 36zM84 73q15 -14 33.5 -10.5t37.5 16.5t36 31t28 33q0 23 4.5 49.5t9.5 50.5t9.5 42.5t6.5 24.5q-5 -2 -11 -3q-5 -2 -12.5 -2.5t-15.5 -2.5q8 16 9.5 26.5
t0.5 16.5q-1 7 -4 11q-11 9 -38.5 -14.5t-63.5 -86.5q-15 -26 -24 -55.5t-12.5 -55.5t-1.5 -45.5t8 -25.5z" />
    <glyph glyph-name="oslash" unicode="&#xf8;" horiz-adv-x="416" 
d="M489 321q10 9 17 10t10 -4t1 -14t-11 -20q-5 -6 -25 -24t-48.5 -39t-61.5 -41t-63 -30q-9 -38 -26 -71t-41 -57t-54 -37.5t-65 -13.5q-31 0 -51 10q-6 -8 -10 -16l-8.5 -14.5t-7.5 -13.5q-17 -8 -30 -11.5t-23 -5.5q-11 -2 -21 -2q-20 0 -21.5 4.5t6.5 18.5q3 5 22 32
l45 62q-11 26 -13.5 56t-2.5 56q0 19 4.5 42t12.5 47t20.5 48t29.5 44q6 17 18.5 30t29 21.5t35.5 13t38 4.5q2 0 5 -1t5 -2q10 -1 23.5 -5.5t27.5 -14.5l10 15q13 20 27.5 29.5t45.5 15.5q26 6 34.5 4.5t5.5 -5.5q-8 -12 -28.5 -39l-50.5 -69q9 -16 15 -35.5t6 -44.5
q0 -8 -1 -19t-3 -20q21 8 45 20.5t47.5 27t44.5 29.5t35 29zM127 38q18 0 32.5 8.5t27 22t22 31t16.5 36.5q-7 -1 -13.5 -1.5t-13.5 -0.5q-40 0 -66.5 22.5t-42.5 57.5q-6 -21 -9.5 -41t-3.5 -38t2 -35.5t7.5 -31t15.5 -22t26 -8.5zM250 238q1 19 -0.5 39t-7 36.5t-14 27
t-20.5 10.5q-20 0 -37 -10.5t-32 -29.5q-3 -9 -3 -19q0 -16 1.5 -33.5t10 -31.5t25.5 -23.5t48 -9.5q5 0 11 0.5t11 1.5q3 13 4.5 23.5t2.5 18.5z" />
    <glyph glyph-name="questiondown" unicode="&#xbf;" horiz-adv-x="423" 
d="M128 -30q-25 0 -58.5 7t-62 25t-46 48.5t-11.5 76.5q6 49 25 89t46 71.5t58.5 55t63 40t60 25.5t48.5 12l24 103q4 17 12 33.5t21.5 28.5t33 18.5t46.5 5.5l-51 -201q-4 -17 -17 -28t-47 -19q-44 -8 -89 -27.5t-81 -60.5q-9 -11 -20 -27.5t-20.5 -36t-16.5 -40.5t-10 -42
q-3 -20 1 -37.5t16 -30.5t33.5 -21t54.5 -8q26 0 49 8t40 21.5t28 30.5t13 35q1 10 0 21q-1 8 -4 17.5t-11 16.5q45 12 67.5 3t31.5 -25q11 -18 9 -45q-5 -38 -33 -65t-64.5 -44.5t-75 -25.5t-63.5 -8zM352 655q-26 0 -44 11t-16 31q1 10 8.5 21t19 20t26 14.5t31.5 5.5
q27 0 45 -11.5t16 -30.5q-3 -22 -23.5 -41.5t-62.5 -19.5z" />
    <glyph glyph-name="exclamdown" unicode="&#xa1;" horiz-adv-x="255" 
d="M40 -22q-10 -2 -21 -2q-9 0 -19.5 2t-19.5 9l153 563q3 11 18 22t31.5 17.5t28.5 6.5t10 -10q-4 -16 -18 -78l-15 -66.5l-21.5 -95.5l-29 -130l-38.5 -170q-2 -7 -3 -14q-1 -6 -0.5 -12t2.5 -8q-8 -10 -18 -16t-19 -10zM194 653q-25 -4 -41 5t-14 31q1 13 10.5 24.5
t23 20.5t28.5 14t26 5q20 0 35 -9t13 -29q-2 -26 -27 -41.5t-54 -20.5z" />
    <glyph glyph-name="logicalnot" unicode="&#xac;" horiz-adv-x="525" 
d="M480 400q13 -1 19 -8.5t6 -20t-4 -29.5l-9 -38q-10 -40 -17.5 -64t-14.5 -37.5t-15 -19.5t-20 -10q-9 -2 -17 -4t-15.5 -2t-15.5 2q10 22 20 49l18 54t18 66q-21 0 -48 1l-55 2t-55.5 1t-50.5 -2q-37 0 -77 -3q-34 -2 -74 -6.5t-78 -11.5q-1 7 0.5 15t3.5 15q3 8 6 15
q5 9 15.5 20t18.5 14q6 2 27 4t51 4t65.5 3t70.5 1q71 0 127 -3.5z" />
    <glyph glyph-name="guillemotleft" unicode="&#xab;" horiz-adv-x="355" 
d="M196 389q-3 -5 -18 -24l-36 -46.5l-47 -60.5l-51 -67q2 -7 13 -30q8 -20 25.5 -59.5l48.5 -108.5q-4 -3 -8.5 -4t-9.5 -2t-12 -1q-13 0 -17 2.5t-6 8.5q0 1 -9.5 15.5l-22.5 35.5l-28.5 45.5l-28.5 46l-21.5 36t-8.5 15.5q2 4 20 24l47 52.5l92 100.5q11 12 20 18t32 10
q20 3 24 -1t2 -6zM318 396q19 3 23.5 -1t2.5 -6q-3 -5 -17.5 -24l-36 -46.5l-47 -60.5l-50.5 -67q2 -7 12 -30l24 -59.5l45 -108.5q-4 -3 -8.5 -4t-9.5 -2t-11 -1q-14 0 -18 2.5t-6 8.5q0 1 -9 15.5l-21.5 35.5l-27 45.5l-27 46l-20.5 36t-8 15.5q2 4 20 24l46.5 52.5
l90.5 100.5q11 12 21 18t32 10z" />
    <glyph glyph-name="guillemotright" unicode="&#xbb;" horiz-adv-x="355" 
d="M77 -6l17.5 23l36 46.5l47.5 60.5l51 67q-2 6 -13 30l-26.5 59.5l-48.5 109.5q4 2 9 3l10 2t11 1q13 0 18 -2t7 -8q0 -1 9 -15.5l22.5 -36l28.5 -46l28 -46l21.5 -36t8.5 -15.5q-2 -4 -20 -24l-47 -53l-91 -100q-11 -11 -21 -17t-33 -11q-18 -3 -22.5 1.5t-2.5 6.5z
M-45 -14q-20 -3 -24 1.5t-2 6.5l18 23l36 46.5l46.5 60.5l51.5 67q-2 6 -12 30q-8 20 -25 59.5l-46 109.5q4 2 9 3l10 2t12 1q13 0 17 -2t6 -8q0 -1 9 -15.5l21.5 -36l27 -46l27 -46l21 -36t8.5 -15.5q-2 -4 -20 -24l-47.5 -53l-91.5 -100q-11 -11 -20 -17t-32 -11z" />
    <glyph glyph-name="ellipsis" unicode="&#x2026;" horiz-adv-x="629" 
d="M51 76q26 4 41.5 -4.5t13.5 -31.5q-1 -13 -10.5 -24.5t-23 -20.5t-28.5 -14t-26 -5q-20 0 -35.5 9t-13.5 29q1 13 8.5 23.5t19 18.5t26 13t28.5 7zM256 76q26 4 41.5 -4.5t13.5 -31.5q-1 -13 -10.5 -24.5t-23 -20.5t-28.5 -14t-26 -5q-20 0 -35.5 9t-13.5 29
q1 13 8.5 23.5t19 18.5t26 13t28.5 7zM461 76q26 4 41.5 -4.5t13.5 -31.5q-1 -13 -10.5 -24.5t-23 -20.5t-28.5 -14t-26 -5q-21 0 -36 9t-13 29q1 13 8.5 23.5t19 18.5t26 13t28.5 7z" />
    <glyph glyph-name="uni00A0" unicode="&#xa0;" horiz-adv-x="287" 
 />
    <glyph glyph-name="Agrave" unicode="&#xc0;" horiz-adv-x="566" 
d="M433 753q35 0 57.5 -19.5t19.5 -70.5q-1 -17 -8 -63.5l-17 -109.5l-22.5 -135.5l-23.5 -141.5h21q10 0 22 1t25 3q-5 -12 -11 -22.5t-12 -18.5q-7 -9 -14 -16q-9 -11 -21 -19.5t-23 -13.5q-7 -49 -11.5 -87.5t-5.5 -63.5q-2 -38 2 -71q3 -29 12 -59t29 -48l-116 -38
q-12 17 -17.5 45.5t-7.5 56.5q-3 33 -1 68t11 91.5l20 123.5q-20 6 -43.5 10t-52.5 4q-26 0 -54.5 -2t-56.5 -5q-12 -44 -24 -93q-13 -53 -23.5 -90.5t-20 -62.5t-19 -40t-20.5 -22q-12 -6 -30 -11q-17 -5 -43 -10t-67 -8q15 18 26 33t22 37t24.5 56.5l34.5 90.5
q9 23 18.5 50.5t20.5 56.5q-36 -5 -61 -9t-30 -6q-8 -1 -13 0q-13 2 -14 13q1 14 9.5 19t25.5 12q8 4 36.5 14.5t69.5 22.5l29.5 83.5l28.5 79.5l27 71.5t24 57.5q17 37 43.5 81.5t61 83.5t76 65t87.5 26zM422 545q11 45 15 74t3 45.5t-6.5 23t-13.5 6.5q-13 0 -32 -10
t-40 -28.5t-41.5 -46t-36.5 -62.5q-23 -52 -52 -127.5t-63 -192.5q20 3 39.5 5t38.5 2q34 0 65 -2.5t57 -5.5l18.5 94.5l18.5 88.5l16.5 77t13.5 59zM411 948q6 -3 21.5 -13.5t32.5 -24l32.5 -27t20.5 -22.5q11 -18 2.5 -27.5t-18.5 -15.5l-71.5 38l-46.5 24l-33 17
q-9 5 -7 18.5t13 25.5q16 16 28 15t26 -8z" />
    <glyph glyph-name="Atilde" unicode="&#xc3;" horiz-adv-x="566" 
d="M433 753q35 0 57.5 -19.5t19.5 -70.5q-1 -17 -8 -63.5l-17 -109.5l-22.5 -135.5l-23.5 -141.5h21q10 0 22 1t25 3q-5 -12 -11 -22.5t-12 -18.5q-7 -9 -14 -16q-9 -11 -21 -19.5t-23 -13.5q-7 -49 -11.5 -87.5t-5.5 -63.5q-2 -38 2 -71q3 -29 12 -59t29 -48l-116 -38
q-12 17 -17.5 45.5t-7.5 56.5q-3 33 -1 68t11 91.5l20 123.5q-20 6 -43.5 10t-52.5 4q-26 0 -54.5 -2t-56.5 -5q-12 -44 -24 -93q-13 -53 -23.5 -90.5t-20 -62.5t-19 -40t-20.5 -22q-12 -6 -30 -11q-17 -5 -43 -10t-67 -8q15 18 26 33t22 37t24.5 56.5l34.5 90.5
q9 23 18.5 50.5t20.5 56.5q-36 -5 -61 -9t-30 -6q-8 -1 -13 0q-13 2 -14 13q1 14 9.5 19t25.5 12q8 4 36.5 14.5t69.5 22.5l29.5 83.5l28.5 79.5l27 71.5t24 57.5q17 37 43.5 81.5t61 83.5t76 65t87.5 26zM422 545q11 45 15 74t3 45.5t-6.5 23t-13.5 6.5q-13 0 -32 -10
t-40 -28.5t-41.5 -46t-36.5 -62.5q-23 -52 -52 -127.5t-63 -192.5q20 3 39.5 5t38.5 2q34 0 65 -2.5t57 -5.5l18.5 94.5l18.5 88.5l16.5 77t13.5 59zM589 902q17 -10 17 -33q0 -12 -7.5 -24t-21 -20.5t-32 -12.5t-40.5 -1q-23 3 -41 9t-33 10.5t-29 6t-30 -4.5l-18 -8
l-16.5 -8.5t-15.5 -9.5q-6 1 -10 4t-7 5q-4 3 -5 6q-4 6 -6 12q-2 5 -2.5 11t2.5 11q12 16 29.5 24t34.5 11q19 4 40 3q27 -1 43.5 -6t30.5 -10.5t28 -8.5t37 0q7 1 16 5q8 4 17 10.5t19 18.5z" />
    <glyph glyph-name="Otilde" unicode="&#xd5;" 
d="M524 336q-5 -63 -20 -126.5t-37.5 -122.5t-52.5 -110.5t-66.5 -89.5t-78 -60t-86.5 -22q-9 0 -27.5 3.5t-39.5 16t-42.5 36.5t-37.5 64.5t-23 100.5t0 145q12 134 49.5 243.5t86 187.5t100.5 120.5t92 42.5q16 0 26.5 -6.5t16.5 -16.5q7 2 16 3t20 1q29 0 51.5 -30
t37 -84t19 -129.5t-3.5 -166.5zM186 -137q39 0 80 40t76 108.5t60 159.5t34 193q2 27 3 62t0 71t-4.5 71.5t-9.5 62.5t-15 44t-21 17q-13 -1 -26 -8q-11 -6 -25.5 -19.5t-28.5 -37.5q-3 2 -4.5 6t-3.5 8t-3 9q-2 3 -2 7.5t-1 10.5q-20 -22 -47.5 -62.5t-55 -100.5
t-50 -141.5t-31.5 -185.5q-8 -92 -4 -153t15.5 -97t28.5 -50.5t35 -14.5zM528 912q17 -10 17 -33q0 -12 -7.5 -24t-21 -20.5t-32 -12.5t-40.5 -1q-23 3 -41 9t-33 10.5t-29 6t-30 -4.5l-18 -8l-16.5 -8.5t-15.5 -9.5q-6 1 -10 4t-7 5q-4 3 -5 6q-4 6 -6 12q-2 5 -2.5 11
t2.5 11q12 16 29.5 24t34.5 11q19 4 40 3q27 -1 43.5 -6t30.5 -10.5t28 -8.5t37 0q7 1 16 5q8 4 17 10.5t19 18.5z" />
    <glyph glyph-name="OE" unicode="&#x152;" horiz-adv-x="941" 
d="M812 754q38 0 65.5 -12.5t44.5 -31t25.5 -40t8.5 -39.5q1 -33 -8 -67t-23.5 -61.5t-32.5 -45t-35 -17.5q-13 0 -27 4q-12 3 -28 10t-32 21q26 10 46 28.5t33.5 41.5t20.5 47.5t6 46.5q-2 32 -15.5 49.5t-45.5 17.5q-41 0 -83 -20.5t-74 -57t-50.5 -87t-12.5 -109.5
q2 -23 9.5 -41.5t17.5 -34t21.5 -27.5t21.5 -21q15 2 29.5 3.5t26.5 1.5q17 0 33.5 -6t16.5 -17q0 -8 -4 -18t-11.5 -19t-18.5 -15t-26 -6q-13 0 -29 6t-34 15q-38 -8 -69 -28.5t-53 -48.5t-34 -61t-11 -64q1 -29 9 -58.5t25.5 -52.5t45.5 -37.5t67 -14.5q29 0 55.5 12.5
t49 31.5t41.5 42t33 45t23.5 40l13.5 26q3 6 9 9t11 1.5t7.5 -7.5t-0.5 -18q-8 -36 -29.5 -80.5t-56 -83.5t-81.5 -65.5t-104 -26.5q-72 0 -128 35t-81 93q-42 -62 -95 -99.5t-113 -37.5q-9 0 -27.5 3.5t-39.5 16t-42.5 36.5t-37.5 64.5t-23 100.5t0 145q12 134 49.5 243.5
t86 187.5t100.5 120.5t92 42.5q16 0 26.5 -6.5t16.5 -16.5q7 2 16 3t20 1q35 0 60.5 -42t37.5 -117q23 39 57 69.5t73 52.5t81.5 33.5t82.5 11.5zM436 364q2 27 3 62t0 71t-4.5 71.5t-9.5 62.5t-15 44t-21 17q-13 -1 -26 -8q-11 -6 -25.5 -19.5t-28.5 -37.5q-3 2 -4.5 6
t-3.5 8t-3 9q-2 3 -2 7.5t-1 10.5q-20 -22 -47.5 -62.5t-55 -100.5t-50 -141.5t-31.5 -185.5q-8 -92 -4 -153t15.5 -97t28.5 -50.5t35 -14.5q39 0 80 40t76 108.5t60 159.5t34 193zM513 251l39 20.5t39 16.5q-38 19 -66 54q0 -2 -0.5 -3t-0.5 -3q-2 -21 -4.5 -42t-6.5 -43z
" />
    <glyph glyph-name="oe" unicode="&#x153;" horiz-adv-x="598" 
d="M682 208q-30 -44 -68.5 -85.5t-81 -74t-87 -52.5t-86.5 -20q-14 0 -30 4.5t-32 13.5t-30 23t-24 33q-26 -32 -59 -51t-73 -19q-41 0 -64.5 17.5t-35 43.5t-14 57t-2.5 58q0 19 4.5 42t12.5 47t20.5 48t29.5 44q6 17 18.5 30t29 21.5t35.5 13t37 4.5q3 0 5.5 -1t5.5 -2
q10 0 23.5 -5t28 -15t28 -25t22.5 -36q33 42 74 69.5t85 27.5q38 0 54.5 -19t14.5 -47q-4 -44 -28.5 -79.5t-57 -63.5t-68 -46.5t-61.5 -27.5q0 -28 7 -47t19 -30t28 -16t33 -5q36 0 74.5 22t74 53t65.5 64l49 55q7 8 14.5 9.5t12 -2t4.5 -12t-7 -19.5zM425 362
q-12 0 -27.5 -11t-31 -32t-29 -51.5t-21.5 -68.5q16 4 38 18t42 32.5t34 39t16 37.5q2 19 -4 27.5t-17 8.5zM115 38q18 0 32.5 8t26.5 21.5t21.5 31t16.5 35.5q-42 1 -78 21.5t-56 60.5q-7 -21 -11 -41.5t-4 -39.5q0 -18 2 -35.5t8 -31t16 -22t26 -8.5zM238 238q2 19 0 39
t-7.5 36.5t-14 27t-20.5 10.5q-19 0 -36.5 -10.5t-32.5 -29.5q-3 -9 -3 -19q0 -15 7.5 -31.5t21.5 -31t33.5 -24t43.5 -11.5q0 2 1 4q7 24 7 40z" />
    <glyph glyph-name="endash" unicode="&#x2013;" horiz-adv-x="362" 
d="M310 289q-28 1 -71 0.5t-85 -1.5q-28 -1 -57 -4q-25 -2 -55 -6t-57 -12q-1 8 0 15.5t3 14.5q2 8 4 15q4 10 11.5 21t13.5 14q5 2 20.5 4t37 3.5t48 2.5t52.5 1q53 1 88 -0.5t67 -4.5q14 -2 16.5 -9t-3.5 -25q-6 -17 -13 -23.5t-20 -5.5z" />
    <glyph glyph-name="emdash" unicode="&#x2014;" horiz-adv-x="521" 
d="M496 343q8 -2 10 -9.5t-4 -27.5q-6 -18 -13.5 -23t-14.5 -7q-3 -1 -27 1t-58.5 4.5t-74.5 4.5t-76 1q-68 -2 -123 -4.5t-101 -8.5q-20 -2 -25 8t-3 23q3 13 9 28.5t21 17.5q48 5 92 7t79 3q40 1 77 0q46 2 87 0t71.5 -5.5t50 -7.5t23.5 -5z" />
    <glyph glyph-name="quotedblleft" unicode="&#x201c;" horiz-adv-x="296" 
d="M132 588q15 -2 26 -15t8 -36q-5 -29 -30 -49t-54 -16q-26 3 -34 25t-3 50q3 14 9 33t17 39t27.5 39t39.5 34q10 6 15.5 5.5t7.5 -5t0.5 -11t-7.5 -12.5q-10 -13 -23 -35t-18 -48q11 3 19 2zM268 588q17 -2 27.5 -15t7.5 -36q-2 -15 -10 -27.5t-19.5 -21.5t-26 -13.5
t-28.5 -2.5q-26 3 -34 25t-3 50q3 14 9 33t17 39t27.5 39t39.5 34q10 6 15.5 5.5t8 -5t0.5 -11t-7 -12.5q-11 -13 -23.5 -35t-17.5 -48q10 3 17 2z" />
    <glyph glyph-name="quotedblright" unicode="&#x201d;" horiz-adv-x="295" 
d="M283 697q26 -3 34 -25.5t3 -49.5q-3 -14 -9 -33t-17 -39.5t-27.5 -39.5t-39.5 -34q-10 -6 -15.5 -5t-7.5 5.5t-0.5 11t7.5 12.5q11 12 23.5 34.5t17.5 48.5q-12 -3 -18 -2q-16 2 -27 14.5t-8 36.5q5 29 30 48.5t54 16.5zM147 697q26 -3 33.5 -25.5t2.5 -49.5
q-2 -14 -8 -33t-17.5 -39.5t-28 -39.5t-39.5 -34q-10 -6 -15.5 -5t-7.5 5.5t-0.5 11t6.5 12.5q11 12 23.5 34.5t17.5 48.5q-10 -3 -17 -2q-16 2 -26.5 14.5t-7.5 36.5q2 15 10 27.5t19.5 21.5t25.5 13t29 3z" />
    <glyph glyph-name="quoteleft" unicode="&#x2018;" horiz-adv-x="159" 
d="M132 588q15 -2 26 -15t8 -36q-5 -29 -30 -49t-54 -16q-26 3 -34 25t-3 50q3 14 9 33t17 39t27.5 39t39.5 34q10 6 15.5 5.5t7.5 -5t0.5 -11t-7.5 -12.5q-10 -13 -23 -35t-18 -48q11 3 19 2z" />
    <glyph glyph-name="quoteright" unicode="&#x2019;" horiz-adv-x="158" 
d="M97 577q-16 2 -26.5 14.5t-7.5 35.5q2 15 10 27.5t19.5 21.5t25.5 13t29 3q26 -3 33.5 -25.5t2.5 -49.5q-2 -14 -8 -33t-17.5 -39t-28 -39t-39.5 -34q-10 -6 -15.5 -5.5t-7.5 5t-0.5 11.5t6.5 13q11 11 23.5 33.5t17.5 48.5q-5 -1 -9 -2t-8 1z" />
    <glyph glyph-name="divide" unicode="&#xf7;" horiz-adv-x="359" 
d="M163 337q-28 -1 -57 -4q-25 -2 -54 -6t-56 -12q-2 8 -1 15.5l2 14.5q1 8 3 15q3 10 10 21t14 14q4 2 19.5 4t37 4t47.5 3.5t52 1.5q53 0 88 -1.5t67 -5.5q14 -2 17 -8.5t-2 -24.5q-5 -17 -11 -24t-20 -6q-26 1 -69.5 0.5t-86.5 -1.5zM154 480q-1 18 18.5 32.5t45.5 14.5
q25 0 34.5 -8t10.5 -22q1 -11 -6 -19.5t-17.5 -14.5t-23 -9t-23.5 -3q-20 0 -29 8t-10 21zM162 281q16 0 28.5 -5t14.5 -21q1 -19 -20 -36.5t-57 -17.5q-18 0 -24.5 8.5t-7.5 16.5q-1 19 16 37t50 18z" />
    <glyph glyph-name="ydieresis" unicode="&#xff;" horiz-adv-x="416" 
d="M263 368q13 10 25.5 15.5t22.5 7.5q11 3 22 2q27 -2 33.5 -17t1.5 -48q-3 -17 -12 -43l-21 -63.5t-25.5 -85.5t-25.5 -108q-12 -49 -26 -113l-28.5 -135t-35.5 -181q-5 -25 -21.5 -29t-34.5 4q-7 4 -13 9l-11 11.5t-10 17.5l40.5 153l31.5 120l28 106l9.5 41.5t9.5 40.5
q-13 -21 -28 -40t-33 -33t-38.5 -21.5t-42.5 -4.5q-54 7 -76.5 40t-19.5 86q1 21 6 46t11 48t11.5 41.5t8.5 26.5q12 38 17.5 65t-8.5 45q14 9 26.5 12.5t22.5 5.5q11 1 22 0q27 -4 31.5 -20t-3.5 -48q-4 -17 -13 -43.5l-19 -54.5l-18 -51.5t-9 -33.5q-9 -45 -1 -69.5
t35 -24.5q13 0 29 11.5t32.5 30.5t32.5 43.5t29.5 49.5t24 49t15.5 43q7 37 9 58t-14 38zM290 480q-21 0 -29.5 8t-8.5 22q0 9 6 18t15.5 16t22 11t25.5 4q25 0 34.5 -8.5t9.5 -22.5q0 -11 -7.5 -20t-18.5 -15t-24 -9.5t-25 -3.5zM207 534q0 -19 -22.5 -37.5t-59.5 -18.5
q-19 0 -25 8.5t-6 17.5q0 19 18 38t53 19q16 0 29 -5t13 -22z" />
    <glyph glyph-name="Ydieresis" unicode="&#x178;" horiz-adv-x="545" 
d="M157 77q-67 0 -97.5 43t-25.5 116q4 45 17 115q11 60 33.5 151t61.5 220q12 8 24.5 12.5t22.5 6.5q11 3 23 4q9 1 19 1q8 0 16 -1.5t13 -5.5q-51 -131 -79.5 -224t-42.5 -153q-17 -70 -21 -115q-3 -55 16.5 -78t58.5 -23q31 0 63 23.5t62 67t55.5 105t43.5 138.5
q8 43 18 86l18 79.5l19 79.5q9 8 19.5 12.5t19.5 7.5q11 4 22 5q10 1 20 0q8 -1 16.5 -3t13.5 -7q-17 -53 -29.5 -96l-21.5 -74l-19 -64q-8 -30 -19 -78l-27 -106l-39 -158l-15 -60t-23.5 -75t-36 -77.5t-53 -69.5t-74.5 -50t-100 -19q-33 1 -59 10q-23 8 -42.5 23.5
t-22.5 44.5q5 11 11 20t12 17q7 9 14 17q7 7 15 13q7 5 15 9t16 4q4 -9 12 -21t20 -22.5t27 -17.5t33 -7q24 0 51 15.5t53.5 53t51.5 101.5t47 161q-13 -23 -33 -50t-47.5 -51t-64 -40t-81.5 -16zM463 807q-21 0 -29.5 8t-8.5 22q0 9 6 18t15.5 16t22 11t25.5 4
q25 0 34.5 -8.5t9.5 -22.5q0 -11 -7.5 -20t-18.5 -15t-24 -9.5t-25 -3.5zM380 861q0 -19 -22.5 -37.5t-59.5 -18.5q-19 0 -25 8.5t-6 17.5q0 19 18 38t53 19q16 0 29 -5t13 -22z" />
    <glyph glyph-name="fraction" unicode="&#x2044;" horiz-adv-x="615" 
d="M586 749q24 5 33 3.5t7 -6.5l-27 -36l-51.5 -69.5l-67.5 -92.5l-74.5 -104l-72 -104t-60.5 -93l-58 -92l-49 -80.5l-42 -71.5q-17 -8 -30 -11.5t-23 -5.5q-11 -2 -21 -2q-20 0 -22 5t7 18l43 63l37.5 54.5l54.5 79.5l74.5 109.5l98.5 143.5l169 245q13 20 28 29.5
t46 17.5z" />
    <glyph glyph-name="Euro" unicode="&#x20ac;" horiz-adv-x="343" 
d="M293 671q21 -1 40 -11q17 -8 33.5 -26.5t27.5 -51.5q-2 -2 -8.5 -13t-18.5 -19q-8 -5 -14.5 -7.5t-11.5 1.5q-4 2 -5.5 8t-1.5 11q0 9 -2.5 20t-7.5 20.5t-14 16t-22 6.5q-19 0 -39.5 -17.5t-40 -44.5t-37 -60t-30.5 -65q0 -1 -0.5 -1.5t-0.5 -1.5h15q23 0 45.5 -1
t41 -2.5t32 -3t18.5 -2.5q9 -2 9.5 -8t-4.5 -16q-2 -3 -5 -7q-2 -3 -5 -6.5t-7 -6.5q-63 3 -102 3h-40q-4 1 -7.5 0.5t-8.5 -0.5q-3 -11 -6 -20.5l-6 -19.5h7q45 1 75 0.5t57 -2.5q12 -1 14 -6t-3 -19q-5 -13 -11 -18t-17 -4q-23 0 -60 -0.5t-74 -2.5q-5 -23 -7 -40t-3 -28
t0.5 -30.5t8 -39t20 -34t37.5 -14.5q25 0 58.5 25.5t61.5 63.5q9 1 16 -2q4 -2 7 -4t6 -5q5 -5 3 -11q-25 -40 -50.5 -61.5t-47.5 -31.5q-26 -11 -49 -13q-30 0 -56.5 16.5t-45.5 44.5t-28.5 66t-5.5 82q0 2 0.5 5t0.5 5q-13 -1 -25 -3q-11 -2 -22.5 -4.5t-22.5 -4.5
q-2 11 2 23q2 6 4 11q3 7 9.5 15.5t12.5 10.5q4 2 17 3t33 3q2 9 4.5 18.5t4.5 18.5q-9 -1 -19 -2q-8 -1 -18 -2t-19 -2q-3 5 -2.5 11t2.5 12q2 7 5 14q3 6 7 11q3 5 7.5 8.5t9.5 3.5q6 0 14 0.5t15 0.5q8 0 16 1q17 47 41.5 89.5t54.5 75t65 52t73 19.5z" />
    <glyph glyph-name="guilsinglleft" unicode="&#x2039;" horiz-adv-x="207" 
d="M170 396q20 3 24 -1t2 -6q-3 -5 -18 -24l-36 -46.5l-47 -60.5l-51 -67q2 -7 12 -30q8 -20 25 -59.5l46 -108.5q-4 -3 -9 -4l-10 -2q-6 -1 -12 -1q-13 0 -17 2.5t-6 8.5q-1 1 -9.5 15.5l-21 35.5l-27 45.5l-27 46l-21 36t-8.5 15.5q2 4 20 24l47 52.5l92 100.5
q11 12 20 18t32 10z" />
    <glyph glyph-name="guilsinglright" unicode="&#x203a;" horiz-adv-x="207" 
d="M-45 -14q-20 -3 -24 1.5t-2 6.5l18 23l36 46.5l46.5 60.5l51.5 67q-2 6 -12 30q-8 20 -25 59.5l-46 109.5q4 2 9 3l10 2t12 1q13 0 17 -2t6 -8q0 -1 9 -15.5l21.5 -36l27 -46l27 -46l21 -36t8.5 -15.5q-2 -4 -20 -24l-47.5 -53l-91.5 -100q-11 -11 -20 -17t-32 -11z" />
    <glyph glyph-name="fi" unicode="&#xfb01;" horiz-adv-x="563" 
d="M433 546q-21 16 -21.5 34.5t9.5 35t25 28t26 13.5t18.5 -4.5t11.5 -17t4.5 -23.5t-2.5 -23q-3 -11 -11.5 -21.5t-19 -17t-22 -8.5t-18.5 4zM608 238q8 10 16 12.5t13.5 -1.5t6 -13.5t-6.5 -22.5q-9 -17 -26 -39.5t-38.5 -47.5t-46 -49.5t-47.5 -44t-43.5 -32t-34.5 -12.5
q-17 -1 -33.5 5.5t-30 18t-22.5 27t-10 32.5q-1 15 -0.5 36t2.5 45.5t6 51.5t10 53q-27 -4 -55 -9t-60 -19l-34 -12q-14 -5 -29.5 -11.5t-25.5 -11.5l-23 -73q58 -41 89.5 -84t45.5 -79q17 -42 19 -82q0 -44 -13 -88.5t-34.5 -85t-50 -75.5t-60 -60t-64 -38t-61.5 -10
q-21 2 -35 13.5t-21 29t-8 39t4 42.5q4 21 17 78q11 48 34 139.5l62 243.5q-11 11 -15.5 21.5t-6.5 20.5q-2 11 0 22q4 14 12 26q7 11 19 22.5t32 21.5q13 32 23.5 67.5l18.5 64.5q9 34 16 68q25 85 26 138.5t-2 70.5l-2 14q-2 6 -3.5 13.5t-3.5 14.5q11 6 19.5 10t14.5 6
q7 3 13 4q23 5 43.5 5.5t22.5 -7.5q1 -5 2.5 -18t1.5 -32t-3 -42.5t-11 -49.5l-19 -64l-29 -93.5l-47 -149.5q23 8 47.5 13.5t44.5 9.5q23 4 45 7q30 5 52 6q8 26 16 47t19 35q5 6 19 10t29 6.5t27.5 3t14.5 -0.5q1 -1 -5 -21t-15 -47l-19 -55.5t-15 -46.5t-12.5 -40.5
t-12.5 -44t-7 -40.5t3 -29q5 -12 11 -16.5t13 -4.5q20 0 50.5 22t62 52.5t58.5 62.5t40 51zM163 -56q-9 21 -21 41q-11 17 -26.5 36.5t-36.5 35.5q-14 -50 -24.5 -92t-17.5 -74q-9 -37 -14 -67l-18.5 -75t-15 -66.5t-4.5 -47.5t13 -18q29 -2 60.5 22.5t57.5 62t43 81
t17 80.5q0 41 -13 81z" />
    <glyph glyph-name="fl" unicode="&#xfb02;" horiz-adv-x="529" 
d="M528 694q6 -5 5.5 -20t-2.5 -31l-9 -41l-32 -124l-48.5 -188l-76.5 -300q-6 -5 -13 -7t-13 -2q-7 0 -14 1q-8 2 -15 6q-6 4 -12 10.5t-9 17.5l21 87l18 78l19 78q-34 -3 -67 -8t-72 -22l-34 -12q-14 -5 -29.5 -11.5t-25.5 -11.5l-23 -73q58 -41 89.5 -84t45.5 -79
q17 -42 19 -82q0 -44 -13 -88.5t-34.5 -85t-50 -75.5t-60 -60t-64 -38t-61.5 -10q-21 2 -35 13.5t-21 29t-8 39t4 42.5q4 21 17 78q11 48 34 139.5l62 243.5q-11 11 -15.5 21.5t-6.5 20.5q-2 11 0 22q4 14 12 26q7 11 19 22.5t32 21.5q13 32 23.5 67.5l18.5 64.5q9 34 16 68
q25 85 26 138.5t-2 70.5l-2 14q-2 6 -3.5 13.5t-3.5 14.5q11 6 19.5 10t14.5 6q7 3 13 4q23 5 43.5 5.5t22.5 -7.5q1 -5 2.5 -18t1.5 -32t-3 -42.5t-11 -49.5l-19 -64l-29 -93.5l-47 -149.5q23 8 47.5 13.5t44.5 9.5q23 4 45 7q26 4 44.5 5.5t32.5 2.5l22 92.5l20 84.5
l15.5 67.5t8.5 40.5q3 19 5 37q2 16 2 33t-3 31q8 5 17.5 8t18.5 5q11 3 22 5t20 2q8 0 15 -1.5t9 -6.5zM163 -56q-9 21 -21 41q-11 17 -26.5 36.5t-36.5 35.5q-14 -50 -24.5 -92t-17.5 -74q-9 -37 -14 -67l-18.5 -75t-15 -66.5t-4.5 -47.5t13 -18q29 -2 60.5 22.5t57.5 62
t43 81t17 80.5q0 41 -13 81z" />
    <glyph glyph-name="periodcentered" unicode="&#xb7;" horiz-adv-x="173" 
d="M92 393q26 4 41.5 -4.5t13.5 -31.5q-1 -13 -10.5 -24.5t-23 -20t-28.5 -13.5t-26 -5q-20 0 -35.5 8.5t-13.5 29.5q1 13 8.5 23.5t19 18t26 12.5t28.5 7z" />
    <glyph glyph-name="quotesinglbase" unicode="&#x201a;" horiz-adv-x="193" 
d="M47 103q26 -3 33.5 -25t2.5 -50q-2 -14 -8 -33t-17.5 -39.5t-28 -39.5t-39.5 -34q-10 -6 -15.5 -5t-7.5 5.5t0 11t7 12.5q11 12 23.5 34.5t17.5 48.5q-12 -3 -18 -2q-16 2 -26.5 14.5t-7.5 36.5q2 15 10 27.5t19.5 21.5t25.5 13.5t29 2.5z" />
    <glyph glyph-name="quotedblbase" unicode="&#x201e;" horiz-adv-x="331" 
d="M184 103q26 -3 34 -25t2 -50q-3 -14 -9 -33t-17 -39.5t-27.5 -39.5t-39.5 -34q-9 -6 -15 -5t-8 5.5t-0.5 11t7.5 12.5q11 12 23.5 34.5t17.5 48.5q-11 -4 -18 -2q-16 2 -27 14.5t-7 36.5q2 15 10 27.5t19.5 21.5t26 13.5t28.5 2.5zM47 103q26 -3 33.5 -25t2.5 -50
q-2 -14 -8 -33t-17.5 -39.5t-28 -39.5t-39.5 -34q-10 -6 -15.5 -5t-7.5 5.5t0 11t7 12.5q11 12 23.5 34.5t17.5 48.5q-12 -3 -18 -2q-16 2 -26.5 14.5t-7.5 36.5q2 15 10 27.5t19.5 21.5t25.5 13.5t29 2.5z" />
    <glyph glyph-name="perthousand" unicode="&#x2030;" horiz-adv-x="872" 
d="M41 535q0 27 10.5 63t31.5 68.5t51.5 54.5t70.5 22q10 0 27 -7t33 -22.5t28 -39.5t12 -58q0 -42 -12 -83t-33.5 -74t-52.5 -53t-69 -20q-35 0 -54 14.5t-29 37t-12 48.5t-2 49zM241 600q1 15 -0.5 31t-6 29t-11 21.5t-15.5 8.5q-21 0 -40.5 -17t-33.5 -42.5t-22.5 -55.5
t-8.5 -55q0 -14 1.5 -28t6 -25t12.5 -17.5t20 -6.5q26 0 44 20.5t29.5 47t17.5 52.5t7 37zM444 341q11 0 28 -7t33.5 -22t28 -39t11.5 -58q0 -42 -12 -83.5t-33.5 -74.5t-52.5 -53t-69 -20q-35 0 -54 15t-29 37t-12 48t-2 48q0 28 10.5 64t31 68.5t51 54.5t70.5 22zM480 199
q1 15 0 31t-5.5 29t-11.5 21.5t-16 8.5q-21 0 -40 -17.5t-33 -43t-22 -55t-8 -54.5q0 -15 1.5 -28.5t6 -24.5t12.5 -17.5t20 -6.5q26 0 44 20.5t29 47t16.5 52.5t6.5 37zM558 749q25 5 33.5 3.5t6.5 -6.5l-27 -36l-51.5 -69.5l-67.5 -92.5l-74 -104l-71.5 -104t-60.5 -93
l-59 -92l-49 -80.5l-42 -71.5q-17 -8 -30 -11.5t-23 -5.5q-11 -2 -20 -2q-20 0 -22.5 5t6.5 18l43 63l37.5 54.5l54.5 79.5l74.5 109.5l98.5 143.5l169 245q14 20 28.5 29.5t45.5 17.5zM731 341q11 0 28 -7t33 -22t27.5 -39t11.5 -58q0 -42 -11.5 -83.5t-33.5 -74.5
t-52.5 -53t-68.5 -20q-35 0 -54.5 15t-29.5 37t-12 48t-2 48q0 28 10.5 64t31.5 68.5t51.5 54.5t70.5 22zM767 199q1 15 0 31t-5.5 29t-11.5 21.5t-16 8.5q-21 0 -40 -17.5t-33 -43t-22 -55t-8 -54.5q0 -15 1.5 -28.5t6 -24.5t12.5 -17.5t20 -6.5q25 0 43 20.5t29.5 47
t17 52.5t6.5 37z" />
    <glyph glyph-name="Acircumflex" unicode="&#xc2;" horiz-adv-x="566" 
d="M433 753q35 0 57.5 -19.5t19.5 -70.5q-1 -17 -8 -63.5l-17 -109.5l-22.5 -135.5l-23.5 -141.5h21q10 0 22 1t25 3q-5 -12 -11 -22.5t-12 -18.5q-7 -9 -14 -16q-9 -11 -21 -19.5t-23 -13.5q-7 -49 -11.5 -87.5t-5.5 -63.5q-2 -38 2 -71q3 -29 12 -59t29 -48l-116 -38
q-12 17 -17.5 45.5t-7.5 56.5q-3 33 -1 68t11 91.5l20 123.5q-20 6 -43.5 10t-52.5 4q-26 0 -54.5 -2t-56.5 -5q-12 -44 -24 -93q-13 -53 -23.5 -90.5t-20 -62.5t-19 -40t-20.5 -22q-12 -6 -30 -11q-17 -5 -43 -10t-67 -8q15 18 26 33t22 37t24.5 56.5l34.5 90.5
q9 23 18.5 50.5t20.5 56.5q-36 -5 -61 -9t-30 -6q-8 -1 -13 0q-13 2 -14 13q1 14 9.5 19t25.5 12q8 4 36.5 14.5t69.5 22.5l29.5 83.5l28.5 79.5l27 71.5t24 57.5q17 37 43.5 81.5t61 83.5t76 65t87.5 26zM422 545q11 45 15 74t3 45.5t-6.5 23t-13.5 6.5q-13 0 -32 -10
t-40 -28.5t-41.5 -46t-36.5 -62.5q-23 -52 -52 -127.5t-63 -192.5q20 3 39.5 5t38.5 2q34 0 65 -2.5t57 -5.5l18.5 94.5l18.5 88.5l16.5 77t13.5 59zM540 857q9 -15 17 -25.5t21 -16.5q-8 -5 -18.5 -6t-20.5 -1q-11 0 -24 2q-9 1 -16.5 4.5t-14.5 10.5t-14 19t-16 31
q0 1 -0.5 1.5t-0.5 1.5l-51 -41t-16 -13q-16 -14 -32.5 -12t-29.5 1h-12q-5 0 -11 -0.5t-11 -1.5l17 14l25 20q15 11 32 25l16 13l20 16t19 14.5t12 8.5q3 3 14 4.5t23.5 1.5t23 -1.5t12.5 -5.5q2 -3 7 -12l10.5 -19.5t11 -19.5t7.5 -13z" />
    <glyph glyph-name="Ecircumflex" unicode="&#xca;" horiz-adv-x="536" 
d="M195 -186q-47 0 -87.5 15t-71 42t-48.5 63.5t-19 79.5q-1 56 17.5 100t49 78t69.5 57.5t80 38.5q-22 12 -41.5 29t-34.5 38t-24 44t-9 46q-2 70 28.5 127t78.5 97.5t107.5 62.5t116.5 22q38 0 65 -12.5t44 -31t25.5 -40t9.5 -39.5q1 -33 -8.5 -67t-24 -61.5t-32.5 -45
t-35 -17.5q-13 0 -27 4q-12 3 -28 10t-32 21q26 10 46 28.5t33.5 41.5t20 47.5t6.5 46.5q-1 32 -15 49.5t-45 17.5q-42 0 -84 -20.5t-74.5 -57t-51 -87t-12.5 -109.5q5 -45 27.5 -76t42.5 -48q16 2 30 3.5t26 1.5q17 0 34 -6t17 -17q0 -8 -3.5 -18t-11.5 -19t-19 -15t-26 -6
q-12 0 -29 6t-34 15q-38 -8 -69 -28.5t-52.5 -48.5t-33.5 -61t-11 -64q1 -29 9 -58.5t25 -52.5t44.5 -37.5t66.5 -14.5q29 0 55.5 12.5t49.5 31.5t42 42t33 45t23.5 40l13.5 26q3 6 8.5 9t11 1.5t8.5 -7.5t0 -18q-8 -36 -30 -80.5t-56.5 -83.5t-81 -65.5t-103.5 -26.5z
M530 868q9 -15 17 -25.5t21 -16.5q-8 -5 -18.5 -6t-20.5 -1q-11 0 -24 2q-9 1 -16.5 4.5t-14.5 10.5t-14 19t-16 31q0 1 -0.5 1.5t-0.5 1.5l-51 -41t-16 -13q-16 -14 -32.5 -12t-29.5 1h-12q-5 0 -11 -0.5t-11 -1.5l17 14l25 20q15 11 32 25l16 13l20 16t19 14.5t12 8.5
q3 3 14 4.5t23.5 1.5t23 -1.5t12.5 -5.5q2 -3 7 -12l10.5 -19.5t11 -19.5t7.5 -13z" />
    <glyph glyph-name="Aacute" unicode="&#xc1;" horiz-adv-x="566" 
d="M433 753q35 0 57.5 -19.5t19.5 -70.5q-1 -17 -8 -63.5l-17 -109.5l-22.5 -135.5l-23.5 -141.5h21q10 0 22 1t25 3q-5 -12 -11 -22.5t-12 -18.5q-7 -9 -14 -16q-9 -11 -21 -19.5t-23 -13.5q-7 -49 -11.5 -87.5t-5.5 -63.5q-2 -38 2 -71q3 -29 12 -59t29 -48l-116 -38
q-12 17 -17.5 45.5t-7.5 56.5q-3 33 -1 68t11 91.5l20 123.5q-20 6 -43.5 10t-52.5 4q-26 0 -54.5 -2t-56.5 -5q-12 -44 -24 -93q-13 -53 -23.5 -90.5t-20 -62.5t-19 -40t-20.5 -22q-12 -6 -30 -11q-17 -5 -43 -10t-67 -8q15 18 26 33t22 37t24.5 56.5l34.5 90.5
q9 23 18.5 50.5t20.5 56.5q-36 -5 -61 -9t-30 -6q-8 -1 -13 0q-13 2 -14 13q1 14 9.5 19t25.5 12q8 4 36.5 14.5t69.5 22.5l29.5 83.5l28.5 79.5l27 71.5t24 57.5q17 37 43.5 81.5t61 83.5t76 65t87.5 26zM422 545q11 45 15 74t3 45.5t-6.5 23t-13.5 6.5q-13 0 -32 -10
t-40 -28.5t-41.5 -46t-36.5 -62.5q-23 -52 -52 -127.5t-63 -192.5q20 3 39.5 5t38.5 2q34 0 65 -2.5t57 -5.5l18.5 94.5l18.5 88.5l16.5 77t13.5 59zM483 942q9 7 20 -1t16 -24q7 -21 1 -31.5t-18 -18.5q-6 -5 -22.5 -14t-36 -18.5t-38.5 -17t-29 -8.5q-11 -1 -17 2.5
t-9.5 8.5t-4.5 11.5t-1 11.5q78 54 109 77z" />
    <glyph glyph-name="Edieresis" unicode="&#xcb;" horiz-adv-x="536" 
d="M195 -186q-47 0 -87.5 15t-71 42t-48.5 63.5t-19 79.5q-1 56 17.5 100t49 78t69.5 57.5t80 38.5q-22 12 -41.5 29t-34.5 38t-24 44t-9 46q-2 70 28.5 127t78.5 97.5t107.5 62.5t116.5 22q38 0 65 -12.5t44 -31t25.5 -40t9.5 -39.5q1 -33 -8.5 -67t-24 -61.5t-32.5 -45
t-35 -17.5q-13 0 -27 4q-12 3 -28 10t-32 21q26 10 46 28.5t33.5 41.5t20 47.5t6.5 46.5q-1 32 -15 49.5t-45 17.5q-42 0 -84 -20.5t-74.5 -57t-51 -87t-12.5 -109.5q5 -45 27.5 -76t42.5 -48q16 2 30 3.5t26 1.5q17 0 34 -6t17 -17q0 -8 -3.5 -18t-11.5 -19t-19 -15t-26 -6
q-12 0 -29 6t-34 15q-38 -8 -69 -28.5t-52.5 -48.5t-33.5 -61t-11 -64q1 -29 9 -58.5t25 -52.5t44.5 -37.5t66.5 -14.5q29 0 55.5 12.5t49.5 31.5t42 42t33 45t23.5 40l13.5 26q3 6 8.5 9t11 1.5t8.5 -7.5t0 -18q-8 -36 -30 -80.5t-56.5 -83.5t-81 -65.5t-103.5 -26.5z
M494 817q-21 0 -29.5 8t-8.5 22q0 9 6 18t15.5 16t22 11t25.5 4q25 0 34.5 -8.5t9.5 -22.5q0 -11 -7.5 -20t-18.5 -15t-24 -9.5t-25 -3.5zM411 871q0 -19 -22.5 -37.5t-59.5 -18.5q-19 0 -25 8.5t-6 17.5q0 19 18 38t53 19q16 0 29 -5t13 -22z" />
    <glyph glyph-name="Egrave" unicode="&#xc8;" horiz-adv-x="536" 
d="M195 -186q-47 0 -87.5 15t-71 42t-48.5 63.5t-19 79.5q-1 56 17.5 100t49 78t69.5 57.5t80 38.5q-22 12 -41.5 29t-34.5 38t-24 44t-9 46q-2 70 28.5 127t78.5 97.5t107.5 62.5t116.5 22q38 0 65 -12.5t44 -31t25.5 -40t9.5 -39.5q1 -33 -8.5 -67t-24 -61.5t-32.5 -45
t-35 -17.5q-13 0 -27 4q-12 3 -28 10t-32 21q26 10 46 28.5t33.5 41.5t20 47.5t6.5 46.5q-1 32 -15 49.5t-45 17.5q-42 0 -84 -20.5t-74.5 -57t-51 -87t-12.5 -109.5q5 -45 27.5 -76t42.5 -48q16 2 30 3.5t26 1.5q17 0 34 -6t17 -17q0 -8 -3.5 -18t-11.5 -19t-19 -15t-26 -6
q-12 0 -29 6t-34 15q-38 -8 -69 -28.5t-52.5 -48.5t-33.5 -61t-11 -64q1 -29 9 -58.5t25 -52.5t44.5 -37.5t66.5 -14.5q29 0 55.5 12.5t49.5 31.5t42 42t33 45t23.5 40l13.5 26q3 6 8.5 9t11 1.5t8.5 -7.5t0 -18q-8 -36 -30 -80.5t-56.5 -83.5t-81 -65.5t-103.5 -26.5z
M380 938q6 -3 21.5 -13.5t32.5 -24l32.5 -27t20.5 -22.5q11 -18 2.5 -27.5t-18.5 -15.5l-71.5 38l-46.5 24l-33 17q-9 5 -7 18.5t13 25.5q16 16 28 15t26 -8z" />
    <glyph glyph-name="Iacute" unicode="&#xcd;" horiz-adv-x="550" 
d="M260 253q-19 20 -30.5 49.5t-17.5 58.5q-7 33 -10 70q-5 72 16 131t57 101t80.5 65t86.5 23q19 0 30.5 -9t17.5 -22t7.5 -27t1.5 -23q0 -32 -1.5 -63t-5 -66t-10.5 -75t-18 -89q-6 -27 -17 -69t-26 -93q45 -1 72.5 -3.5t35.5 -3.5q7 -1 10.5 -7t-4.5 -19
q-8 -12 -22.5 -14t-28.5 -2h-29.5t-50.5 -2q-21 -62 -47.5 -124.5t-58.5 -113t-70 -82t-81 -31.5q-62 0 -104.5 23.5t-69 55t-38.5 63t-12 48.5q0 30 16 61t50.5 58.5t89.5 48.5t132 32q32 4 61 6.5t55 4.5l40.5 153t35.5 144q6 27 12 58.5t9.5 59.5t4 47t-4.5 21
q-3 1 -15 -7.5t-28 -24.5t-31.5 -38.5t-25.5 -48.5q-18 -51 -28 -100q-8 -42 -10 -89t15 -85q-2 -14 -6 -23q-3 -5 -5 -9l-7 -7q-4 -3 -9.5 -6.5t-13.5 -5.5zM248 -26q11 23 27 71t34 111q-49 -6 -99 -16.5t-90.5 -28t-66 -42.5t-25.5 -59q0 -36 14.5 -63t35 -45t42 -27.5
t36.5 -9.5t28.5 11.5t25 28t21 35.5zM503 942q9 7 20 -1t16 -24q7 -21 1 -31.5t-18 -18.5q-6 -5 -22.5 -14t-36 -18.5t-38.5 -17t-29 -8.5q-11 -1 -17 2.5t-9.5 8.5t-4.5 11.5t-1 11.5q78 54 109 77z" />
    <glyph glyph-name="Icircumflex" unicode="&#xce;" horiz-adv-x="550" 
d="M260 253q-19 20 -30.5 49.5t-17.5 58.5q-7 33 -10 70q-5 72 16 131t57 101t80.5 65t86.5 23q19 0 30.5 -9t17.5 -22t7.5 -27t1.5 -23q0 -32 -1.5 -63t-5 -66t-10.5 -75t-18 -89q-6 -27 -17 -69t-26 -93q45 -1 72.5 -3.5t35.5 -3.5q7 -1 10.5 -7t-4.5 -19
q-8 -12 -22.5 -14t-28.5 -2h-29.5t-50.5 -2q-21 -62 -47.5 -124.5t-58.5 -113t-70 -82t-81 -31.5q-62 0 -104.5 23.5t-69 55t-38.5 63t-12 48.5q0 30 16 61t50.5 58.5t89.5 48.5t132 32q32 4 61 6.5t55 4.5l40.5 153t35.5 144q6 27 12 58.5t9.5 59.5t4 47t-4.5 21
q-3 1 -15 -7.5t-28 -24.5t-31.5 -38.5t-25.5 -48.5q-18 -51 -28 -100q-8 -42 -10 -89t15 -85q-2 -14 -6 -23q-3 -5 -5 -9l-7 -7q-4 -3 -9.5 -6.5t-13.5 -5.5zM248 -26q11 23 27 71t34 111q-49 -6 -99 -16.5t-90.5 -28t-66 -42.5t-25.5 -59q0 -36 14.5 -63t35 -45t42 -27.5
t36.5 -9.5t28.5 11.5t25 28t21 35.5zM571 857q9 -15 17 -25.5t21 -16.5q-8 -5 -18.5 -6t-20.5 -1q-11 0 -24 2q-9 1 -16.5 4.5t-14.5 10.5t-14 19t-16 31q0 1 -0.5 1.5t-0.5 1.5l-51 -41t-16 -13q-16 -14 -32.5 -12t-29.5 1h-12q-5 0 -11 -0.5t-11 -1.5l17 14l25 20
q15 11 32 25l16 13l20 16t19 14.5t12 8.5q3 3 14 4.5t23.5 1.5t23 -1.5t12.5 -5.5q2 -3 7 -12l10.5 -19.5t11 -19.5t7.5 -13z" />
    <glyph glyph-name="Idieresis" unicode="&#xcf;" horiz-adv-x="550" 
d="M260 253q-19 20 -30.5 49.5t-17.5 58.5q-7 33 -10 70q-5 72 16 131t57 101t80.5 65t86.5 23q19 0 30.5 -9t17.5 -22t7.5 -27t1.5 -23q0 -32 -1.5 -63t-5 -66t-10.5 -75t-18 -89q-6 -27 -17 -69t-26 -93q45 -1 72.5 -3.5t35.5 -3.5q7 -1 10.5 -7t-4.5 -19
q-8 -12 -22.5 -14t-28.5 -2h-29.5t-50.5 -2q-21 -62 -47.5 -124.5t-58.5 -113t-70 -82t-81 -31.5q-62 0 -104.5 23.5t-69 55t-38.5 63t-12 48.5q0 30 16 61t50.5 58.5t89.5 48.5t132 32q32 4 61 6.5t55 4.5l40.5 153t35.5 144q6 27 12 58.5t9.5 59.5t4 47t-4.5 21
q-3 1 -15 -7.5t-28 -24.5t-31.5 -38.5t-25.5 -48.5q-18 -51 -28 -100q-8 -42 -10 -89t15 -85q-2 -14 -6 -23q-3 -5 -5 -9l-7 -7q-4 -3 -9.5 -6.5t-13.5 -5.5zM248 -26q11 23 27 71t34 111q-49 -6 -99 -16.5t-90.5 -28t-66 -42.5t-25.5 -59q0 -36 14.5 -63t35 -45t42 -27.5
t36.5 -9.5t28.5 11.5t25 28t21 35.5zM525 817q-21 0 -29.5 8t-8.5 22q0 9 6 18t15.5 16t22 11t25.5 4q25 0 34.5 -8.5t9.5 -22.5q0 -11 -7.5 -20t-18.5 -15t-24 -9.5t-25 -3.5zM442 871q0 -19 -22.5 -37.5t-59.5 -18.5q-19 0 -25 8.5t-6 17.5q0 19 18 38t53 19q16 0 29 -5
t13 -22z" />
    <glyph glyph-name="Igrave" unicode="&#xcc;" horiz-adv-x="550" 
d="M260 253q-19 20 -30.5 49.5t-17.5 58.5q-7 33 -10 70q-5 72 16 131t57 101t80.5 65t86.5 23q19 0 30.5 -9t17.5 -22t7.5 -27t1.5 -23q0 -32 -1.5 -63t-5 -66t-10.5 -75t-18 -89q-6 -27 -17 -69t-26 -93q45 -1 72.5 -3.5t35.5 -3.5q7 -1 10.5 -7t-4.5 -19
q-8 -12 -22.5 -14t-28.5 -2h-29.5t-50.5 -2q-21 -62 -47.5 -124.5t-58.5 -113t-70 -82t-81 -31.5q-62 0 -104.5 23.5t-69 55t-38.5 63t-12 48.5q0 30 16 61t50.5 58.5t89.5 48.5t132 32q32 4 61 6.5t55 4.5l40.5 153t35.5 144q6 27 12 58.5t9.5 59.5t4 47t-4.5 21
q-3 1 -15 -7.5t-28 -24.5t-31.5 -38.5t-25.5 -48.5q-18 -51 -28 -100q-8 -42 -10 -89t15 -85q-2 -14 -6 -23q-3 -5 -5 -9l-7 -7q-4 -3 -9.5 -6.5t-13.5 -5.5zM248 -26q11 23 27 71t34 111q-49 -6 -99 -16.5t-90.5 -28t-66 -42.5t-25.5 -59q0 -36 14.5 -63t35 -45t42 -27.5
t36.5 -9.5t28.5 11.5t25 28t21 35.5zM401 938q6 -3 21.5 -13.5t32.5 -24l32.5 -27t20.5 -22.5q11 -18 2.5 -27.5t-18.5 -15.5l-71.5 38l-46.5 24l-33 17q-9 5 -7 18.5t13 25.5q16 16 28 15t26 -8z" />
    <glyph glyph-name="Oacute" unicode="&#xd3;" 
d="M524 336q-5 -63 -20 -126.5t-37.5 -122.5t-52.5 -110.5t-66.5 -89.5t-78 -60t-86.5 -22q-9 0 -27.5 3.5t-39.5 16t-42.5 36.5t-37.5 64.5t-23 100.5t0 145q12 134 49.5 243.5t86 187.5t100.5 120.5t92 42.5q16 0 26.5 -6.5t16.5 -16.5q7 2 16 3t20 1q29 0 51.5 -30
t37 -84t19 -129.5t-3.5 -166.5zM186 -137q39 0 80 40t76 108.5t60 159.5t34 193q2 27 3 62t0 71t-4.5 71.5t-9.5 62.5t-15 44t-21 17q-13 -1 -26 -8q-11 -6 -25.5 -19.5t-28.5 -37.5q-3 2 -4.5 6t-3.5 8t-3 9q-2 3 -2 7.5t-1 10.5q-20 -22 -47.5 -62.5t-55 -100.5
t-50 -141.5t-31.5 -185.5q-8 -92 -4 -153t15.5 -97t28.5 -50.5t35 -14.5zM452 942q9 7 20 -1t16 -24q7 -21 1 -31.5t-18 -18.5q-6 -5 -22.5 -14t-36 -18.5t-38.5 -17t-29 -8.5q-11 -1 -17 2.5t-9.5 8.5t-4.5 11.5t-1 11.5q78 54 109 77z" />
    <glyph glyph-name="Ocircumflex" unicode="&#xd4;" 
d="M524 336q-5 -63 -20 -126.5t-37.5 -122.5t-52.5 -110.5t-66.5 -89.5t-78 -60t-86.5 -22q-9 0 -27.5 3.5t-39.5 16t-42.5 36.5t-37.5 64.5t-23 100.5t0 145q12 134 49.5 243.5t86 187.5t100.5 120.5t92 42.5q16 0 26.5 -6.5t16.5 -16.5q7 2 16 3t20 1q29 0 51.5 -30
t37 -84t19 -129.5t-3.5 -166.5zM186 -137q39 0 80 40t76 108.5t60 159.5t34 193q2 27 3 62t0 71t-4.5 71.5t-9.5 62.5t-15 44t-21 17q-13 -1 -26 -8q-11 -6 -25.5 -19.5t-28.5 -37.5q-3 2 -4.5 6t-3.5 8t-3 9q-2 3 -2 7.5t-1 10.5q-20 -22 -47.5 -62.5t-55 -100.5
t-50 -141.5t-31.5 -185.5q-8 -92 -4 -153t15.5 -97t28.5 -50.5t35 -14.5zM499 868q9 -15 17 -25.5t21 -16.5q-8 -5 -18.5 -6t-20.5 -1q-11 0 -24 2q-9 1 -16.5 4.5t-14.5 10.5t-14 19t-16 31q0 1 -0.5 1.5t-0.5 1.5l-51 -41t-16 -13q-16 -14 -32.5 -12t-29.5 1h-12
q-5 0 -11 -0.5t-11 -1.5l17 14l25 20q15 11 32 25l16 13l20 16t19 14.5t12 8.5q3 3 14 4.5t23.5 1.5t23 -1.5t12.5 -5.5q2 -3 7 -12l10.5 -19.5t11 -19.5t7.5 -13z" />
    <glyph glyph-name="Ograve" unicode="&#xd2;" 
d="M524 336q-5 -63 -20 -126.5t-37.5 -122.5t-52.5 -110.5t-66.5 -89.5t-78 -60t-86.5 -22q-9 0 -27.5 3.5t-39.5 16t-42.5 36.5t-37.5 64.5t-23 100.5t0 145q12 134 49.5 243.5t86 187.5t100.5 120.5t92 42.5q16 0 26.5 -6.5t16.5 -16.5q7 2 16 3t20 1q29 0 51.5 -30
t37 -84t19 -129.5t-3.5 -166.5zM186 -137q39 0 80 40t76 108.5t60 159.5t34 193q2 27 3 62t0 71t-4.5 71.5t-9.5 62.5t-15 44t-21 17q-13 -1 -26 -8q-11 -6 -25.5 -19.5t-28.5 -37.5q-3 2 -4.5 6t-3.5 8t-3 9q-2 3 -2 7.5t-1 10.5q-20 -22 -47.5 -62.5t-55 -100.5
t-50 -141.5t-31.5 -185.5q-8 -92 -4 -153t15.5 -97t28.5 -50.5t35 -14.5zM380 938q6 -3 21.5 -13.5t32.5 -24l32.5 -27t20.5 -22.5q11 -18 2.5 -27.5t-18.5 -15.5l-71.5 38l-46.5 24l-33 17q-9 5 -7 18.5t13 25.5q16 16 28 15t26 -8z" />
    <glyph glyph-name="Uacute" unicode="&#xda;" horiz-adv-x="588" 
d="M10 -9q1 65 18 164q14 85 45 217t89 318q5 10 15.5 17t21.5 12q12 5 27 8q14 3 27 5q11 2 23 2t20 -2q-35 -88 -60 -159.5t-41 -123.5q-19 -61 -31 -108q-17 -50 -29 -100t-19.5 -94.5t-11 -79.5t-3.5 -55q1 -60 20 -94.5t62 -34.5q36 0 67.5 34t58 83.5t45.5 106.5
t29 102q2 8 4 22q13 62 31 138q15 65 37.5 153l51.5 192q8 8 18 13t18 8q10 4 20 5q10 2 21 2q9 0 21 -1.5t24 -5.5q-20 -54 -39 -112.5l-34 -108.5q-18 -58 -34 -115q-23 -72 -37 -129.5t-22.5 -106t-13 -90l-8.5 -81.5q-3 -32 -1 -60q2 -25 7 -50t18 -42q-5 -7 -14 -10
t-19 -5q-11 -2 -24 -2q-26 0 -38.5 32.5t-13.5 103.5q-8 -16 -25 -40.5t-42.5 -48t-59.5 -40.5t-76 -17t-69.5 14.5t-44 39t-23 57t-6.5 67.5zM503 911q9 7 20 -1t16 -24q7 -21 1 -31.5t-18 -18.5q-6 -5 -22.5 -14t-36 -18.5t-38.5 -17t-29 -8.5q-11 -1 -17 2.5t-9.5 8.5
t-4.5 11.5t-1 11.5q78 54 109 77z" />
    <glyph glyph-name="Ucircumflex" unicode="&#xdb;" horiz-adv-x="588" 
d="M10 -9q1 65 18 164q14 85 45 217t89 318q5 10 15.5 17t21.5 12q12 5 27 8q14 3 27 5q11 2 23 2t20 -2q-35 -88 -60 -159.5t-41 -123.5q-19 -61 -31 -108q-17 -50 -29 -100t-19.5 -94.5t-11 -79.5t-3.5 -55q1 -60 20 -94.5t62 -34.5q36 0 67.5 34t58 83.5t45.5 106.5
t29 102q2 8 4 22q13 62 31 138q15 65 37.5 153l51.5 192q8 8 18 13t18 8q10 4 20 5q10 2 21 2q9 0 21 -1.5t24 -5.5q-20 -54 -39 -112.5l-34 -108.5q-18 -58 -34 -115q-23 -72 -37 -129.5t-22.5 -106t-13 -90l-8.5 -81.5q-3 -32 -1 -60q2 -25 7 -50t18 -42q-5 -7 -14 -10
t-19 -5q-11 -2 -24 -2q-26 0 -38.5 32.5t-13.5 103.5q-8 -16 -25 -40.5t-42.5 -48t-59.5 -40.5t-76 -17t-69.5 14.5t-44 39t-23 57t-6.5 67.5zM530 847q9 -15 17 -25.5t21 -16.5q-8 -5 -18.5 -6t-20.5 -1q-11 0 -24 2q-9 1 -16.5 4.5t-14.5 10.5t-14 19t-16 31q0 1 -0.5 1.5
t-0.5 1.5l-51 -41t-16 -13q-16 -14 -32.5 -12t-29.5 1h-12q-5 0 -11 -0.5t-11 -1.5l17 14l25 20q15 11 32 25l16 13l20 16t19 14.5t12 8.5q3 3 14 4.5t23.5 1.5t23 -1.5t12.5 -5.5q2 -3 7 -12l10.5 -19.5t11 -19.5t7.5 -13z" />
    <glyph glyph-name="Ugrave" unicode="&#xd9;" horiz-adv-x="588" 
d="M10 -9q1 65 18 164q14 85 45 217t89 318q5 10 15.5 17t21.5 12q12 5 27 8q14 3 27 5q11 2 23 2t20 -2q-35 -88 -60 -159.5t-41 -123.5q-19 -61 -31 -108q-17 -50 -29 -100t-19.5 -94.5t-11 -79.5t-3.5 -55q1 -60 20 -94.5t62 -34.5q36 0 67.5 34t58 83.5t45.5 106.5
t29 102q2 8 4 22q13 62 31 138q15 65 37.5 153l51.5 192q8 8 18 13t18 8q10 4 20 5q10 2 21 2q9 0 21 -1.5t24 -5.5q-20 -54 -39 -112.5l-34 -108.5q-18 -58 -34 -115q-23 -72 -37 -129.5t-22.5 -106t-13 -90l-8.5 -81.5q-3 -32 -1 -60q2 -25 7 -50t18 -42q-5 -7 -14 -10
t-19 -5q-11 -2 -24 -2q-26 0 -38.5 32.5t-13.5 103.5q-8 -16 -25 -40.5t-42.5 -48t-59.5 -40.5t-76 -17t-69.5 14.5t-44 39t-23 57t-6.5 67.5zM380 907q6 -3 21.5 -13.5t32.5 -24l32.5 -27t20.5 -22.5q11 -18 2.5 -27.5t-18.5 -15.5l-71.5 38l-46.5 24l-33 17q-9 5 -7 18.5
t13 25.5q16 16 28 15t26 -8z" />
    <glyph glyph-name="dotlessi" unicode="&#x131;" horiz-adv-x="281" 
d="M82 376q5 6 19 10t29 6.5t27.5 3t14.5 -0.5q1 -1 -5 -21t-15 -47l-19 -55.5t-15 -46.5t-12 -40.5t-12.5 -44t-7.5 -40.5t3 -29q5 -12 11 -16.5t13 -4.5q20 0 50.5 22t62 52.5t58.5 62t40 50.5q8 10 16.5 13t14 -1t6 -13t-6.5 -21q-16 -28 -47 -66.5t-66 -74t-68.5 -60.5
t-54.5 -26q-17 -1 -33.5 5.5t-30 18t-22.5 27t-10 32.5q-3 25 0 68.5t11 89t20.5 86.5t28.5 61z" />
    <glyph glyph-name="circumflex" unicode="&#x2c6;" 
d="M458 632q9 -15 17 -25.5t21 -16.5q-8 -5 -18.5 -6t-20.5 -1q-11 0 -24 2q-9 1 -16.5 4.5t-14.5 10.5t-14 19t-16 31q0 1 -0.5 1.5t-0.5 1.5l-51 -41t-16 -13q-16 -14 -32.5 -12t-29.5 1h-12q-5 0 -11 -0.5t-11 -1.5l17 14l25 20q15 11 32 25l16 13l20 16t19 14.5t12 8.5
q3 3 14 4.5t23.5 1.5t23 -1.5t12.5 -5.5q2 -3 7 -12l10.5 -19.5t11 -19.5t7.5 -13z" />
    <glyph glyph-name="tilde" unicode="&#x2dc;" 
d="M492 683q17 -10 17 -33q0 -12 -7.5 -24t-21 -20.5t-32 -12.5t-40.5 -1q-23 3 -41 9t-33 10.5t-29 6t-30 -4.5l-18 -8l-16.5 -8.5t-15.5 -9.5q-6 1 -10 4t-7 5q-4 3 -5 6q-4 6 -6 12q-2 5 -2.5 11t2.5 11q12 16 29.5 24t34.5 11q19 4 40 3q27 -1 43.5 -6t30.5 -10.5
t28 -8.5t37 0q7 1 16 5q8 4 17 10.5t19 18.5z" />
    <glyph glyph-name="macron" unicode="&#xaf;" 
d="M461 664q11 -1 12.5 -8.5t-3.5 -25.5q-5 -17 -9.5 -24t-15.5 -6q-20 2 -42.5 2.5t-54.5 -0.5q-55 -2 -81 -5t-29 -3q-4 0 -7.5 6t1.5 26q3 9 8.5 20t10.5 13q7 5 38 7.5t70 2.5h34t25 -0.5t21 -2t22 -2.5z" />
    <glyph glyph-name="breve" unicode="&#x2d8;" 
d="M421 671q2 6 12.5 8.5t22 2.5t20.5 -3t8 -8q-5 -25 -20 -46.5t-36.5 -38t-47.5 -26t-53 -9.5t-49 9.5t-36.5 25.5t-20 38t-0.5 47q1 8 11.5 10.5t22.5 2t21.5 -4.5t8.5 -8q-5 -27 10.5 -44.5t44.5 -17.5q28 0 50.5 18t30.5 44z" />
    <glyph glyph-name="dotaccent" unicode="&#x2d9;" 
d="M408 646q0 -19 -22.5 -37.5t-59.5 -18.5q-18 0 -24 8.5t-6 17.5q0 19 18 38t52 19q17 0 29.5 -5t12.5 -22z" />
    <glyph glyph-name="ring" unicode="&#x2da;" 
d="M359 687q18 0 30 -5t19 -12.5t10 -16.5t3 -18q0 -11 -5 -23.5t-14 -23.5t-22.5 -18.5t-31.5 -7.5q-21 0 -33.5 5.5t-19.5 13.5t-9.5 17.5t-2.5 18.5q0 13 6 25.5t16.5 22.5t24.5 16t29 6zM350 598q14 0 20.5 11t6.5 20q0 8 -4.5 15t-18.5 7q-11 0 -19 -9t-8 -20
q0 -8 4.5 -16t18.5 -8z" />
    <glyph glyph-name="cedilla" unicode="&#xb8;" 
d="M340 22q56 2 81.5 -16.5t20.5 -50.5q-2 -17 -15 -32.5t-34 -28t-48 -21.5t-57 -12q-13 -2 -20 2t-7.5 10t6 12t19.5 9q33 8 57 21.5t27 31.5q2 17 -18 27t-54 7q-12 -1 -19 3.5t-5 15.5q1 4 5.5 16.5t10.5 26.5l11 25.5t6 13.5q3 5 13.5 9.5t25.5 5.5q11 0 21 -3t8 -7
l-6 -12l-11 -19.5z" />
    <glyph glyph-name="hungarumlaut" unicode="&#x2dd;" 
d="M319 696q9 7 20 -1t16 -24q8 -21 1.5 -31.5t-18.5 -18.5q-6 -5 -22.5 -14t-36 -18.5t-38.5 -17t-29 -8.5q-11 -1 -17 2.5t-9.5 8.5t-4.5 11.5t-1 11.5q78 54 109 77zM483 696q9 7 20 -1t16 -24q7 -21 1 -31.5t-18 -18.5q-6 -5 -23 -14l-36.5 -18.5t-38 -17t-28.5 -8.5
q-11 -1 -17 2.5t-9.5 8.5t-4.5 11.5t-1 11.5q78 54 109 77z" />
    <glyph glyph-name="ogonek" unicode="&#x2db;" 
d="M446 -27q10 7 18 7.5t12 -3t3 -10.5t-10 -14q-21 -20 -47.5 -35t-54 -23.5t-54 -10t-48.5 7.5q-21 9 -31 25.5t-9 36.5t13 42t35 44q8 7 19 6.5t19.5 -5t13 -11.5t0.5 -11q-25 -23 -26.5 -44.5t20.5 -30.5q11 -5 27.5 -4.5t34.5 5t35.5 12t29.5 16.5z" />
    <glyph glyph-name="caron" unicode="&#x2c7;" 
d="M246 650q-10 15 -18 25.5t-20 17.5q7 5 17.5 5.5t20.5 0.5q11 -1 24 -2q19 -2 31.5 -15t30.5 -50q0 -1 0.5 -1.5t0.5 -1.5l50.5 41.5t15.5 13.5q17 13 33 11t30 -1h12q5 0 11 0.5t11 1.5q-5 -5 -17 -14.5l-25 -19.5q-15 -11 -32 -25l-16 -13l-20.5 -16l-19 -14.5
t-12.5 -8.5q-3 -3 -14 -4.5t-23 -1.5t-22.5 2t-12.5 5t-7 12l-11 19.5l-11 19.5t-7 13z" />
    <glyph glyph-name="sfthyphen" unicode="&#xad;" horiz-adv-x="362" 
d="M310 289q-28 1 -71 0.5t-85 -1.5q-28 -1 -57 -4q-25 -2 -55 -6t-57 -12q-1 8 0 15.5t3 14.5q2 8 4 15q4 10 11.5 21t13.5 14q5 2 20.5 4t37 3.5t48 2.5t52.5 1q53 1 88 -0.5t67 -4.5q14 -2 16.5 -9t-3.5 -25q-6 -17 -13 -23.5t-20 -5.5z" />
    <glyph glyph-name="currency" unicode="&#xa4;" horiz-adv-x="356" 
d="M329 537q8 3 13.5 2t9.5 -3q4 -3 7 -7t5 -9t2 -10.5t-2 -10.5l-76 -68q3 -13 2 -27q-2 -28 -11 -51.5t-22 -42.5l49 -72q2 -4 2.5 -17t-16.5 -24q-5 -3 -10 -4t-10.5 0.5t-10.5 8.5l-46 66q-30 -19 -62 -19q-33 0 -54 15l-63 -56q-13 -11 -24.5 -6.5t-15.5 12.5
q-6 13 -3.5 23t9.5 15l33.5 29l36.5 31q-1 7 -1.5 13t0.5 13q2 17 10 42t24 50l-46 68q-6 9 -3.5 20.5t10 19.5t18 9t20.5 -11l41 -61q15 11 31 17.5t36 6.5q15 0 27.5 -6t22.5 -15zM241 398q2 16 -6 32.5t-28 16.5q-16 0 -30.5 -9t-26 -24t-19.5 -33.5t-9 -37.5
q-2 -17 7 -30.5t25 -13.5q31 0 56.5 27t30.5 72z" />
    </font>
</defs>
</svg>
